<?xml version="1.0" standalone="no"?>
<!DOCTYPE svg PUBLIC "-//W3C//DTD SVG 1.1//EN" "http://www.w3.org/Graphics/SVG/1.1/DTD/svg11.dtd" >
<svg xmlns="http://www.w3.org/2000/svg">
<metadata></metadata>
<defs>
<font id="citisansregular" horiz-adv-x="1157" >
<font-face units-per-em="2048" ascent="1638" descent="-410" />
<missing-glyph horiz-adv-x="432" />
<glyph unicode=" "  horiz-adv-x="432" />
<glyph unicode="&#x09;" horiz-adv-x="432" />
<glyph unicode="&#xa0;" horiz-adv-x="432" />
<glyph unicode="!" horiz-adv-x="563" d="M283 242q25 0 47.5 -9t39.5 -25q18 -17 29 -40t11 -51q0 -25 -9 -47t-25 -39q-17 -19 -41.5 -30t-51.5 -11q-26 0 -48 9.5t-39 25.5q-19 17 -29.5 41t-10.5 51q0 25 8.5 46.5t23.5 38.5q17 19 41.5 29.5t53.5 10.5zM248 395q-19 128 -31 234.5t-18.5 193t-8.5 154 t-2 117.5v370h177v-370q0 -94 -11 -269.5t-51 -429.5h-55z" />
<glyph unicode="&#x22;" horiz-adv-x="584" d="M186 1059h-92l-35 405h166zM485 1059h-92l-35 405h166z" />
<glyph unicode="#" d="M463 958l-109 -413h320l108 413h-319zM893 958l-107 -413h172v-111h-202l-113 -434h-113l115 434h-319l-113 -434h-113l115 434h-162v111h191l106 413h-180v111h211l102 395h113l-104 -395h319l104 395h111l-102 -395h182v-111h-213z" />
<glyph unicode="$" d="M362 1100q0 -41 8.5 -72.5t25.5 -57.5q19 -29 47 -50.5t65 -40.5v421q-70 -21 -108 -73t-38 -127zM801 395q0 47 -10 82t-30 63q-24 33 -61 57.5t-86 47.5v-473q79 19 127 68q29 29 44.5 68t15.5 87zM965 383q0 -47 -12 -90t-35 -81q-48 -80 -129 -130q-77 -48 -175 -62 v-159h-106v153q-27 0 -74 8t-96 22q-42 11 -78.5 24.5t-56.5 27.5l59 152q20 -17 48 -30t60 -24q35 -11 70.5 -19t67.5 -11v532l-62 27q-69 32 -117 70t-79 86q-55 88 -55 219q0 57 17 108t49 95q42 57 105 96t142 51v149h106v-145q48 -1 87 -6t72 -14t62 -21t58 -27 l-49 -141q-27 19 -57 31.5t-62 20.5q-26 7 -54 10.5t-57 5.5v-486l70 -30q69 -30 120.5 -68t86.5 -86q37 -51 55.5 -114t18.5 -144z" />
<glyph unicode="%" horiz-adv-x="1757" d="M993 350q0 75 28 139.5t78 113.5t116 77.5t143 28.5q74 0 137.5 -25.5t111.5 -70.5q53 -49 83 -117t30 -146q0 -82 -28.5 -151t-79.5 -120q-48 -47 -112 -73t-142 -26q-88 0 -160 33.5t-121 93.5q-40 48 -62 110t-22 133zM37 1085q0 68 24 128.5t66 108.5 q50 57 120.5 89.5t153.5 32.5h1035l-940 -1444h-160l889 1339h-566q18 -17 37 -42t34 -57t24.5 -70.5t9.5 -84.5q0 -78 -25.5 -144.5t-72.5 -116.5q-48 -51 -116 -80t-149 -29t-148 28.5t-115 79.5q-48 50 -74.5 117t-26.5 145zM176 1083q0 -101 54 -167q29 -37 72.5 -57.5 t98.5 -20.5q52 0 93.5 18t70.5 50q62 68 62 177q0 51 -16 94.5t-45 75.5t-70.5 50t-94.5 18q-57 0 -101.5 -22t-73.5 -60q-24 -31 -37 -71t-13 -85zM1133 348q0 -51 14.5 -93.5t40.5 -74.5q29 -36 72.5 -57t97.5 -21q48 0 86.5 15.5t67.5 43.5q34 33 52.5 81t18.5 106 q0 103 -60 169q-29 32 -70.5 50.5t-94.5 18.5q-51 0 -92 -18t-70 -49q-30 -32 -46.5 -76t-16.5 -95z" />
<glyph unicode="&#x26;" horiz-adv-x="1442" d="M606 932l90 47q44 23 73 47.5t46 50.5q18 26 25.5 53t7.5 52q0 72 -40 117q-47 53 -138 53q-48 0 -82.5 -16t-57.5 -43q-38 -46 -38 -113q0 -51 24.5 -100t56.5 -99zM553 733q-64 -32 -116.5 -64.5t-90.5 -70.5q-33 -34 -51.5 -75t-18.5 -95q0 -69 23.5 -122.5 t65.5 -91.5q45 -40 107.5 -60.5t137.5 -20.5t144 26q75 29 135 83zM999 1174q0 -50 -15.5 -92t-41 -76.5t-59 -62.5t-70.5 -52l-125 -80l307 -459h2q31 43 53.5 82.5t39.5 81.5t30.5 89.5t26.5 105.5l162 -19q-19 -77 -42 -143t-50 -125q-49 -106 -115 -195q34 -43 74 -62.5 t88 -19.5q15 0 26.5 0.5t21 2t20 3.5t24.5 5v-150q-7 -3 -22 -7q-13 -3 -36 -5t-59 -2q-41 0 -74.5 8t-64.5 24q-32 17 -61.5 40.5t-61.5 54.5h-2q-47 -37 -92.5 -64t-94.5 -44q-91 -33 -202 -33q-115 0 -222 46q-63 27 -116 69t-89 97q-29 44 -45 94.5t-16 108.5 q0 139 81 245q46 60 117 113.5t169 104.5q-21 32 -44.5 70.5t-42.5 79.5t-31.5 83.5t-12.5 82.5q0 71 27 129t74 100t109 65t132 23q78 0 144.5 -28.5t111.5 -84.5q32 -39 49.5 -90t17.5 -114z" />
<glyph unicode="'" horiz-adv-x="399" d="M244 1059h-92l-35 405h166z" />
<glyph unicode="(" horiz-adv-x="944" d="M612 -410q-94 97 -167.5 207t-125.5 228q-54 125 -82 253t-28 257q0 127 27 251t79 244q51 118 125.5 226.5t171.5 207.5h129q-94 -103 -156.5 -217.5t-100.5 -237.5q-36 -115 -52 -232.5t-16 -235.5q0 -124 17.5 -242t53.5 -233q40 -125 102.5 -243t151.5 -233h-129z " />
<glyph unicode=")" horiz-adv-x="944" d="M209 -410q94 121 159.5 246.5t104.5 258.5q32 109 47 219.5t15 226.5q0 101 -11 201.5t-37 199.5q-36 142 -104 273.5t-174 248.5h129q106 -107 184.5 -226t129.5 -248q89 -222 89 -455q0 -121 -24.5 -241t-72.5 -237q-52 -128 -129 -245.5t-177 -221.5h-129z" />
<glyph unicode="*" horiz-adv-x="512" d="M299 1153l190 -145l-96 -82l-129 202l-121 -202l-106 82l192 141l-247 39l63 131l205 -125l-57 270h141l-55 -270l215 125l41 -131z" />
<glyph unicode="+" d="M649 700h363v-135h-363v-360h-139v360h-365v135h365v361h139v-361z" />
<glyph unicode="," horiz-adv-x="471" d="M92 -270q39 32 66 60t44.5 53.5t25.5 49t8 46.5q0 24 -7 43.5t-22 42.5q-20 7 -34.5 17.5t-23.5 23.5q-18 26 -18 57q0 53 33 86t86 33q34 0 57.5 -11.5t40.5 -29.5q18 -20 26.5 -45.5t8.5 -51.5q0 -97 -34 -175q-30 -70 -85.5 -130t-138.5 -116z" />
<glyph unicode="-" horiz-adv-x="594" d="M53 393v172h488v-172h-488z" />
<glyph unicode="." horiz-adv-x="471" d="M236 242q27 0 51 -10.5t41 -28.5q16 -17 25 -38.5t9 -47.5q0 -25 -9 -46.5t-24 -38.5q-17 -20 -41 -31t-52 -11q-25 0 -46.5 9t-38.5 24q-20 17 -31 41.5t-11 52.5q0 27 10.5 50t27.5 40t40 26t49 9z" />
<glyph unicode="/" horiz-adv-x="1174" d="M354 0h-161l632 1464h156z" />
<glyph unicode="0" horiz-adv-x="1120" d="M268 715q0 -81 5 -148t15 -124q12 -69 31 -121.5t45 -90.5q37 -54 86 -79t109 -25q51 0 90 15.5t70 44.5q35 32 58 78.5t39 103.5q20 75 28 163.5t8 182.5q0 48 -2 99.5t-7 103.5q-9 82 -30 157t-62 129q-32 43 -79 67.5t-113 24.5q-94 0 -156 -56q-85 -77 -117 -266 q-18 -109 -18 -259zM86 715q0 82 7.5 161.5t24.5 154.5q23 97 63 178t103 138q52 46 119.5 71.5t155.5 25.5q81 0 145 -20.5t115 -58.5q67 -51 110 -128t68 -175q20 -78 28.5 -165t8.5 -182q0 -108 -11.5 -202.5t-34.5 -175.5q-23 -78 -57.5 -140.5t-82.5 -108.5 q-54 -52 -125.5 -80t-163.5 -28q-81 0 -146 22.5t-117 64.5q-57 47 -97.5 115.5t-66.5 156.5q-23 81 -34.5 175t-11.5 201z" />
<glyph unicode="1" horiz-adv-x="1120" d="M545 0v1104q-33 -21 -71 -44.5t-77.5 -47.5t-78.5 -48t-74 -46v169q59 32 118 71t121 85q68 53 117 98.5t84 92.5h45v-1434h-184z" />
<glyph unicode="2" horiz-adv-x="1120" d="M133 0v27l465 663q85 124 120 233q27 84 27 154q0 120 -77 175q-31 23 -73 33.5t-93 10.5q-35 0 -71.5 -8t-69.5 -25q-39 -19 -70.5 -47.5t-50.5 -66.5l-113 96q66 101 158 149q96 50 221 50q59 0 112 -8t99 -25q55 -20 98 -52.5t72 -80.5q25 -40 38 -89.5t13 -111.5 q0 -41 -8.5 -86.5t-26.5 -96.5q-19 -54 -49 -111.5t-74 -120.5l-348 -504h594v-158h-893z" />
<glyph unicode="3" horiz-adv-x="1120" d="M205 231q23 -24 52 -42.5t61 -31.5q38 -15 78 -22.5t81 -7.5q96 0 159 31q70 34 103 103q31 65 31 155q0 63 -22.5 109.5t-60.5 78.5q-47 39 -111.5 57.5t-137.5 18.5h-4v149q76 0 134.5 17t95.5 55q28 28 42.5 66.5t14.5 89.5q0 121 -62 180t-192 59q-66 0 -123.5 -20.5 t-105.5 -58.5q-20 32 -39.5 58t-40.5 58q68 57 152 85q39 13 82 19.5t91 6.5q50 0 97 -8t91 -23q52 -18 96.5 -46.5t76.5 -67.5q33 -40 52 -90.5t19 -112.5q0 -54 -17 -105.5t-49 -96.5q-32 -44 -76.5 -78t-102.5 -54q137 -45 210 -130q83 -95 83 -237q0 -102 -34 -181 q-25 -57 -65.5 -99t-94.5 -71q-60 -32 -134.5 -48t-159.5 -16q-39 0 -87 8t-97 23q-51 15 -95.5 37t-76.5 48z" />
<glyph unicode="4" horiz-adv-x="1120" d="M737 1071l-473 -569h473v569zM909 356v-356h-172v356h-680v109q202 245 399 485.5t396 483.5h57v-932h152v-146h-152z" />
<glyph unicode="5" horiz-adv-x="1120" d="M186 727v696h744v-147h-570v-379q45 28 100 40.5t113 12.5q51 0 96 -7t85 -21q97 -33 155 -108q43 -55 65.5 -131.5t22.5 -176.5q0 -135 -32 -236q-23 -74 -63.5 -127.5t-97.5 -89.5q-118 -73 -306 -73q-46 0 -91 6t-87 19q-95 28 -164 83l69 145q35 -27 70.5 -46.5 t70.5 -33.5q69 -26 132 -26q100 0 166 35q70 36 105 113q36 78 36 202q0 57 -8.5 103t-25.5 82q-19 42 -48.5 69.5t-68.5 44.5q-63 27 -152 27q-39 0 -78 -9t-76 -28q-56 -29 -104 -78z" />
<glyph unicode="6" horiz-adv-x="1120" d="M291 434q0 -77 16.5 -132t47.5 -92q36 -44 91.5 -63.5t128.5 -19.5q66 0 114.5 22.5t80.5 60.5q33 39 49.5 92t16.5 116q0 83 -23 144.5t-67 99.5q-65 57 -164 57q-72 0 -128 -20t-94 -61q-33 -36 -51 -87t-18 -117zM774 1331q-89 -62 -161 -122.5t-128.5 -125 t-96.5 -136.5t-64 -156l6 -3q22 22 53 37.5t68 25.5q65 17 135 17q107 0 192 -35q133 -55 195 -179q49 -98 49 -226q0 -59 -12.5 -112t-35.5 -100q-26 -51 -63 -93t-85 -73q-53 -34 -116.5 -52t-136.5 -18q-136 0 -235 48q-112 55 -173 169q-67 125 -67 319q0 116 29 233 t86 229q37 72 85 139t107.5 126.5t130.5 110.5t152 90z" />
<glyph unicode="7" horiz-adv-x="1120" d="M252 0q26 84 67 188t92 217.5t107.5 232t112.5 230t107.5 211t92.5 176.5h-710v168h946v-61l-129 -256q-39 -77 -83.5 -166.5t-90.5 -186t-91.5 -196t-86.5 -197t-75.5 -189t-57.5 -171.5h-201z" />
<glyph unicode="8" horiz-adv-x="1120" d="M621 844q37 35 66.5 69t50.5 69q20 32 30 64.5t10 67.5q0 43 -17 77t-46 57q-60 48 -154 48q-122 0 -179 -63q-42 -47 -42 -121q0 -35 15.5 -66t46.5 -62q35 -35 88.5 -69.5t125.5 -70.5h5zM530 717q-60 -32 -106 -68t-78 -79q-29 -40 -45 -85t-16 -98q0 -57 21 -105.5 t59 -83.5q36 -33 84.5 -52t105.5 -19q65 0 120 21.5t94 62.5q32 34 50.5 78t18.5 98t-15 92t-41 68q-30 34 -73 62t-97 59q-17 11 -36.5 23.5t-40.5 25.5h-5zM385 793q-46 23 -89.5 60t-76.5 83q-29 41 -46 85t-17 89q0 44 10 82.5t27 70.5q26 47 65 81.5t90 57.5 q47 21 101 31.5t112 10.5q118 0 208 -36q45 -18 80.5 -45t61.5 -65t40 -85t14 -105q0 -46 -21.5 -97t-56.5 -99q-33 -45 -75 -82t-87 -58q66 -37 117 -75.5t88 -81.5q44 -51 66 -107t22 -121q0 -60 -11.5 -110.5t-33.5 -92.5q-29 -54 -73 -93t-101 -65q-52 -23 -113.5 -34.5 t-130.5 -11.5q-75 0 -137 10.5t-113 33.5q-105 47 -156 142q-47 89 -47 221q0 56 22 115.5t59 113.5q40 58 92.5 103.5t109.5 68.5v5z" />
<glyph unicode="9" horiz-adv-x="1120" d="M829 989q0 93 -23.5 154.5t-68.5 97.5q-35 29 -83.5 42t-108.5 13q-66 0 -115.5 -23t-81.5 -63q-32 -39 -47.5 -91t-15.5 -113q0 -71 16.5 -126t48.5 -93q33 -40 80.5 -61t108.5 -21q138 0 215 75q36 36 55.5 88t19.5 121zM346 92q89 62 161.5 123t128.5 125.5t96 136.5 t65 156l-6 2q-20 -20 -48 -34.5t-61 -24.5q-34 -11 -71.5 -16t-75.5 -5q-143 0 -245 61q-100 59 -150 168q-42 92 -42 211q0 55 11 105.5t31 95.5q29 63 74.5 112t105.5 81q49 26 106 40.5t121 14.5q121 0 211 -37q131 -53 198 -181q32 -62 49 -141.5t17 -177.5 q0 -104 -23.5 -209t-69.5 -207q-36 -78 -85 -152t-111.5 -139.5t-137.5 -121.5t-163 -98z" />
<glyph unicode=":" horiz-adv-x="471" d="M236 922q27 0 51 -10.5t41 -28.5q16 -17 25 -38.5t9 -47.5q0 -27 -10.5 -51.5t-29.5 -41.5q-17 -16 -39 -25t-47 -9q-27 0 -50.5 10.5t-40.5 28.5q-17 17 -26.5 39.5t-9.5 48.5t9 48t25 39q36 38 93 38zM236 242q24 0 45 -8.5t38 -22.5q20 -17 31.5 -41t11.5 -53 q0 -26 -10 -49.5t-27 -40.5t-40 -27t-49 -10q-29 0 -54.5 12.5t-42.5 33.5q-14 17 -22 37.5t-8 43.5q0 47 30 82q17 20 42 31.5t55 11.5z" />
<glyph unicode=";" horiz-adv-x="471" d="M68 -270q77 64 110 113t33 96q0 24 -6.5 43.5t-22.5 42.5q-35 12 -53 35q-12 14 -17.5 30t-5.5 33q0 51 30 83q34 36 89 36q34 0 57.5 -11.5t40.5 -29.5q18 -20 26.5 -45.5t8.5 -51.5q0 -95 -32 -171q-29 -72 -85.5 -132.5t-140.5 -117.5zM236 922q27 0 51.5 -10.5 t41.5 -29.5q33 -35 33 -85q0 -29 -11 -53.5t-31 -41.5q-17 -15 -38.5 -23.5t-45.5 -8.5q-27 0 -50.5 10.5t-40.5 28.5q-17 17 -26.5 39.5t-9.5 48.5q0 47 30 82q17 20 42 31.5t55 11.5z" />
<glyph unicode="&#x3c;" d="M1012 211l-867 364v121l867 359v-156l-682 -264l682 -264v-160z" />
<glyph unicode="=" d="M1012 864v-135h-867v135h867zM1012 537v-136h-867v136h867z" />
<glyph unicode="&#x3e;" d="M147 1059l867 -365v-121l-867 -358v156l682 264l-682 264v160z" />
<glyph unicode="?" horiz-adv-x="893" d="M389 242q25 0 47 -9t39 -24q19 -17 30 -40.5t11 -51.5q0 -26 -10 -49t-27 -40t-40.5 -27.5t-49.5 -10.5q-55 0 -91 38q-17 17 -26.5 40t-9.5 49q0 27 10.5 50t27.5 40t40 26t49 9zM311 436q-14 32 -22 65t-8 62q0 45 7 81.5t21 71.5q17 42 46 82.5t71 88.5l59 65 q29 31 48.5 58t31.5 52.5t17.5 51.5t5.5 55q0 99 -58 149q-53 46 -153 46q-50 0 -101 -16.5t-92 -53.5q-15 34 -30.5 61.5t-32.5 61.5q25 18 56.5 31.5t69.5 23.5q36 9 77.5 14t89.5 5q69 0 130.5 -20.5t109.5 -58.5q48 -39 76 -95.5t28 -128.5q0 -71 -25.5 -136t-79.5 -122 l-147 -160q-47 -50 -70 -114q-12 -33 -17 -68.5t-5 -71.5q0 -11 2 -31t8 -49h-113z" />
<glyph unicode="@" horiz-adv-x="1534" d="M1456 774q0 -78 -22 -153.5t-67 -133.5q-42 -54 -100.5 -87t-136.5 -33t-138 17q-57 16 -93 52q-43 -38 -92.5 -58t-108.5 -20q-52 0 -97 15t-77 44q-31 28 -48 67.5t-17 90.5q0 58 21.5 100.5t57.5 71.5q30 24 67.5 40.5t79.5 26.5t87 14.5t88 5.5q-8 71 -36 107 q-30 38 -83 38q-105 0 -166 -55l-47 98q80 61 199 61q112 0 179 -51q100 -76 100 -268v-238q35 -26 65.5 -39.5t56.5 -13.5q65 0 108 38q77 69 77 265q0 76 -17.5 145t-50.5 129q-64 116 -174 185q-62 38 -134.5 59t-154.5 21q-84 0 -156 -20t-133 -57q-82 -50 -141 -126 t-92 -171q-41 -115 -41 -247q0 -77 14 -146t40 -130q34 -78 87.5 -139.5t125.5 -103.5q63 -36 136.5 -55.5t159.5 -19.5q123 0 220 36q43 16 81 39.5t70 53.5q23 -9 56.5 -23t78.5 -36q-106 -106 -252 -153q-114 -37 -254 -37q-106 0 -199.5 23t-171.5 67q-88 49 -154 121 t-109 165q-34 74 -52 158.5t-18 179.5q0 143 41 269q39 121 112.5 217t177.5 159q78 48 171.5 73.5t201.5 25.5q112 0 209.5 -26t177.5 -76q78 -48 136.5 -116.5t95.5 -156.5q55 -130 55 -289zM860 506v233h-51q-195 0 -195 -159q0 -27 10 -50t27.5 -39.5t41.5 -26t52 -9.5 q64 0 115 51z" />
<glyph unicode="A" horiz-adv-x="1249" d="M641 1124h-8l-254 -675h495zM1028 0l-100 315h-596l-111 -315h-194l598 1485h41l557 -1485h-195z" />
<glyph unicode="B" horiz-adv-x="1116" d="M326 881q45 -5 89.5 -7t86.5 -2q134 0 208 46q97 61 97 198q0 107 -69 162q-70 57 -212 57q-55 0 -106 -1.5t-94 -6.5v-446zM326 147q55 -5 99 -7.5t79 -2.5q209 0 300 84q81 75 81 230q0 69 -16 118t-46 82q-48 52 -127.5 70t-187.5 18q-60 0 -109.5 -1t-72.5 -3v-588z M154 0v1464q137 8 227.5 11.5t150.5 3.5q136 0 233 -38q108 -41 162 -124q52 -81 52 -195q0 -47 -22.5 -96t-57.5 -91t-79.5 -72t-90.5 -40v-2q176 -44 259 -141q83 -98 83 -260q0 -65 -16 -119.5t-46 -99.5q-31 -48 -74.5 -83.5t-97.5 -60.5q-60 -29 -129 -43t-143 -14 h-411z" />
<glyph unicode="C" horiz-adv-x="1403" d="M1169 1245q-51 38 -140 63q-43 12 -91.5 18.5t-99.5 6.5q-88 0 -163 -23t-138 -65q-75 -49 -129 -118t-86 -150q-46 -113 -46 -234q0 -75 16 -145t45 -134q35 -75 88 -137.5t123 -106.5q63 -39 137 -61t159 -22q51 0 101 10t97 29q45 18 82.5 42.5t65.5 55.5l96 -133 q-45 -45 -99 -76t-116 -51q-54 -17 -113 -25.5t-122 -8.5q-106 0 -198 23.5t-170 67.5q-101 56 -176 139.5t-123 185.5q-38 81 -57.5 168.5t-19.5 180.5q0 82 17.5 161.5t50.5 152.5q45 99 116.5 181t166.5 141q85 52 184 81t213 29q59 0 114.5 -7.5t106.5 -21.5 q48 -13 88.5 -30t75.5 -37z" />
<glyph unicode="D" horiz-adv-x="1290" d="M326 170q22 -4 49.5 -6t57 -3.5t58 -2t52.5 -0.5q90 0 160 25.5t124 70.5q47 40 81 91.5t57 113.5q26 71 38.5 150.5t12.5 164.5q0 174 -49 290q-45 109 -133 171q-116 82 -308 82q-9 0 -29.5 -0.5t-47.5 -1.5t-59 -3t-64 -5v-1137zM154 0v1464q145 7 244.5 9t140.5 2 q94 0 176.5 -19t152.5 -54q72 -36 129 -88.5t99 -119.5q51 -82 77.5 -182t26.5 -217q0 -231 -62 -397q-63 -167 -191 -265q-176 -133 -476 -133h-317z" />
<glyph unicode="E" horiz-adv-x="1124" d="M326 1307v-439h495v-147h-495v-563h680v-158h-852v1464h862v-157h-690z" />
<glyph unicode="F" horiz-adv-x="1075" d="M326 1307v-439h526v-147h-526v-721h-172v1464h872v-157h-700z" />
<glyph unicode="G" horiz-adv-x="1571" d="M1247 1159q-35 37 -78 70t-97 57q-48 22 -105.5 34.5t-126.5 12.5q-91 0 -173 -27.5t-151 -77.5q-66 -48 -115.5 -111.5t-81.5 -141.5q-22 -54 -33.5 -111.5t-11.5 -120.5q0 -78 17 -151t49 -139q64 -130 177 -213q67 -49 148 -76t175 -27q55 0 106.5 5.5t103.5 18.5 q49 12 99 30.5t104 44.5v368h-206v148h380v-607q-78 -46 -146 -79t-142 -53q-63 -17 -134.5 -25t-164.5 -8q-122 0 -229.5 34.5t-197.5 97.5q-82 57 -146 134.5t-106 170.5q-35 75 -53 157.5t-18 170.5q0 90 20.5 174t58.5 161q52 103 132.5 186t186.5 138q80 42 171 64.5 t193 22.5q69 0 137 -14.5t131 -38.5q66 -26 122.5 -60.5t94.5 -72.5z" />
<glyph unicode="H" horiz-adv-x="1333" d="M1008 0v721h-682v-721h-172v1464h172v-596h682v596h172v-1464h-172z" />
<glyph unicode="I" horiz-adv-x="471" d="M150 0v1464h172v-1464h-172z" />
<glyph unicode="J" horiz-adv-x="1044" d="M223 293q13 -39 35.5 -68t51.5 -49t63.5 -29.5t70.5 -9.5q131 0 192 55q50 44 67.5 128.5t17.5 214.5v929h174v-919q0 -127 -19 -227.5t-64 -172.5q-31 -50 -75 -85t-105 -55q-38 -12 -81 -18.5t-94 -6.5q-49 0 -93.5 8.5t-82.5 24.5q-35 14 -64.5 34t-53.5 44 q-40 41 -63 92t-26 110h149z" />
<glyph unicode="K" horiz-adv-x="1167" d="M971 0l-424 692h-8l-213 -297v-395h-172v1464h172v-790h8l573 790h189l-443 -614l512 -850h-194z" />
<glyph unicode="L" horiz-adv-x="1034" d="M154 0v1464h172v-1306h678v-158h-850z" />
<glyph unicode="M" horiz-adv-x="1554" d="M1321 0l-197 952h-8l-301 -962h-72l-315 964h-8l-184 -954h-175l291 1464h68l354 -1091h8q82 270 165.5 544.5t164.5 546.5h70l311 -1464h-172z" />
<glyph unicode="N" horiz-adv-x="1356" d="M1163 -12l-839 1063h-2v-1051h-168v1464h59l819 -1038h2v1038h168v-1476h-39z" />
<glyph unicode="O" horiz-adv-x="1679" d="M274 745q0 -148 58 -275q34 -75 84.5 -135.5t116.5 -105.5t143 -68.5t164 -23.5q84 0 156.5 20.5t134.5 58.5q74 45 129.5 111.5t90.5 149.5q52 124 52 268q0 84 -19.5 161t-57.5 145q-38 69 -92.5 123.5t-124.5 92.5q-58 32 -125.5 49t-143.5 17q-88 0 -166 -24.5 t-144 -69.5t-117.5 -106t-84.5 -135q-26 -58 -40 -121.5t-14 -131.5zM90 745q0 92 21 177t60 162q48 93 118 168.5t159 129.5q85 52 184 80.5t208 28.5q96 0 183 -21.5t165 -61.5q111 -57 196 -146t137 -202q33 -72 50.5 -151t17.5 -164q0 -186 -73 -343 q-47 -102 -120.5 -183.5t-169.5 -137.5q-83 -48 -180 -74.5t-206 -26.5q-115 0 -217 29.5t-189 84.5q-86 54 -153 129.5t-112 168.5q-38 79 -58.5 167.5t-20.5 185.5z" />
<glyph unicode="P" horiz-adv-x="1085" d="M326 723q45 -5 81.5 -7.5t71.5 -2.5q158 0 246 54q68 41 100 115q27 63 27 150q0 49 -10 90.5t-32 75.5q-32 50 -91 81q-44 23 -104 34.5t-140 11.5q-29 0 -69 -3.5t-80 -8.5v-590zM326 0h-172v1464q117 7 190.5 9t97.5 2q182 0 303 -39q76 -24 130.5 -61t89.5 -85 q36 -49 52.5 -108t16.5 -127q0 -145 -43 -244q-55 -127 -184 -188q-61 -29 -138.5 -43.5t-174.5 -14.5q-20 0 -63 1.5t-105 6.5v-573z" />
<glyph unicode="Q" horiz-adv-x="1679" d="M274 745q0 -70 13.5 -135t38.5 -125q38 -91 101.5 -163t147.5 -118q59 -32 125 -49.5t140 -17.5q26 0 61.5 4t67.5 9q-61 68 -130 114q-64 42 -141 64l58 139q111 -36 198 -96q101 -69 162 -162h6q38 24 75.5 56.5t70.5 74.5q29 37 54 81t43 95t28 107.5t10 121.5 q0 127 -46 240q-32 79 -83.5 144t-121.5 112q-65 44 -143 68t-169 24q-93 0 -174 -27t-149 -76q-59 -42 -105 -97.5t-78 -121.5q-29 -61 -44.5 -128t-15.5 -138zM90 743q0 86 18 166.5t53 153.5q46 97 117 177t162 137q87 54 187.5 84t212.5 30q108 0 205.5 -27t182.5 -78 q94 -56 167 -136t121 -180q35 -75 54 -156.5t19 -170.5q0 -72 -12 -139.5t-35 -129.5q-26 -73 -64.5 -136.5t-85.5 -116.5q-48 -54 -101.5 -95.5t-108.5 -68.5q25 -53 52.5 -85t62.5 -52q34 -19 78 -27.5t102 -13.5l-35 -176q-95 12 -163.5 36.5t-119.5 66.5 q-44 35 -76.5 83t-60.5 111q-21 -5 -47.5 -9t-52.5 -6.5t-48 -3.5t-34 -1q-100 0 -190 22t-168 64q-104 55 -183.5 138.5t-130.5 189.5q-38 78 -58 166t-20 183z" />
<glyph unicode="R" horiz-adv-x="1116" d="M326 801q46 -6 87 -9.5t72 -3.5q108 0 188 19.5t125 75.5q26 32 39 78t13 110q0 95 -49 151q-47 53 -144 76q-77 19 -194 19q-13 0 -46 -2t-91 -10v-504zM965 0l-398 639q-37 0 -100.5 2.5t-140.5 7.5v-649h-172v1464q11 1 38 2.5t61.5 3.5t73.5 4t75 3.5t65.5 2.5 t44.5 1q173 0 288 -45q124 -48 183 -149q53 -91 53 -220q0 -50 -15 -101t-43 -99q-22 -37 -51 -69.5t-64 -58.5q-29 -21 -61 -35.5t-67 -21.5l430 -682h-200z" />
<glyph unicode="S" horiz-adv-x="1024" d="M174 225q23 -18 53 -33t64 -26q43 -14 87.5 -21.5t82.5 -7.5q63 0 117 18.5t92 53.5q32 29 49.5 70.5t17.5 93.5q0 43 -6.5 76t-22.5 60q-22 39 -64 70t-112 66q-13 7 -33.5 18t-42 23t-42 23t-35.5 18q-73 36 -125.5 76.5t-84.5 92.5q-28 45 -41 98.5t-13 121.5 q0 52 13 98t37 86q26 44 64 78.5t85 59.5q48 26 103 39.5t115 13.5q58 0 109.5 -7.5t95.5 -18.5q40 -11 71 -22t52 -22l-55 -161q-51 33 -129 54q-32 9 -67.5 14t-71.5 5q-56 0 -103 -15.5t-80 -49.5q-27 -28 -42 -68t-15 -94q0 -35 10.5 -64.5t28.5 -55.5q18 -25 42 -45 t52 -36q51 -29 109 -60t116 -63q76 -42 129.5 -85t86.5 -99q26 -44 38.5 -97t12.5 -122q0 -51 -11.5 -95.5t-31.5 -82.5q-26 -49 -66 -87t-90 -66q-61 -34 -133 -51t-148 -17q-48 0 -96 6.5t-93 18.5q-81 21 -142 61z" />
<glyph unicode="T" horiz-adv-x="1096" d="M623 1307v-1307h-172v1307h-435v157h1063v-157h-456z" />
<glyph unicode="U" horiz-adv-x="1362" d="M154 1464h172v-960q0 -78 15.5 -136t43.5 -100q41 -62 109 -95q40 -20 86.5 -28t97.5 -8q54 0 103 8.5t91 28.5t74 53t54 81q17 39 26.5 88t9.5 112v956h172v-977q0 -83 -16.5 -151t-48.5 -124q-36 -64 -89.5 -110t-121.5 -75q-56 -24 -119 -35.5t-133 -11.5 q-69 0 -129 9t-112 29q-114 43 -184 130q-49 62 -75 146t-26 193v977z" />
<glyph unicode="V" horiz-adv-x="1270" d="M676 -12h-66l-585 1476h186l430 -1120h8l418 1120h178z" />
<glyph unicode="W" horiz-adv-x="1792" d="M1303 -8h-64l-346 1089h-2l-332 -1089h-61l-473 1472h174l327 -1052h2l336 1052h72l338 -1052h2l326 1052h165z" />
<glyph unicode="X" horiz-adv-x="1335" d="M1110 0l-436 623h-2l-441 -623h-196l545 752l-508 712h207l399 -573l412 573h192l-508 -704l539 -760h-203z" />
<glyph unicode="Y" horiz-adv-x="1174" d="M674 655v-655h-172v655l-486 809h187l387 -657h2l387 657h178z" />
<glyph unicode="Z" horiz-adv-x="1214" d="M129 0v35l678 1272h-668v157h922v-34l-682 -1272h704v-158h-954z" />
<glyph unicode="[" horiz-adv-x="573" d="M133 -390v1854h361v-145h-193v-1563h193v-146h-361z" />
<glyph unicode="\" horiz-adv-x="1174" d="M195 1464h155l633 -1464h-162z" />
<glyph unicode="]" horiz-adv-x="573" d="M92 -390v146h193v1563h-193v145h361v-1854h-361z" />
<glyph unicode="^" d="M813 877l-235 430l-238 -435h-141l331 592h101q39 -69 80.5 -143.5t83.5 -150t83.5 -150t79.5 -143.5h-145z" />
<glyph unicode="_" horiz-adv-x="1024" d="M0 -258v127h1024v-127h-1024z" />
<glyph unicode="`" horiz-adv-x="377" d="M256 1112l-254 352h176l197 -352h-119z" />
<glyph unicode="a" horiz-adv-x="887" d="M582 444q-39 7 -62 9t-39 2q-72 0 -131 -25q-26 -11 -47 -27t-36 -36q-16 -22 -25 -48t-9 -57q0 -35 8.5 -64t28.5 -49q34 -36 101 -36q64 0 111 23q26 12 50 31t50 46v231zM598 109q-16 -20 -41 -46.5t-67 -47.5q-30 -15 -70 -25t-94 -10q-43 0 -81 13.5t-70 38.5 q-42 32 -67 77q-17 30 -26.5 65t-9.5 72q0 40 8.5 74.5t23.5 64.5q23 45 59 78.5t80 56.5q48 25 100.5 37t105.5 12q29 0 62 -4.5t71 -21.5q0 69 -11 118t-39 78q-44 47 -139 47q-63 0 -110 -16q-29 -10 -55 -26t-50 -37l-57 127q28 20 64.5 37.5t77.5 29.5q33 10 67 15.5 t67 5.5q98 0 163 -22q81 -27 123 -90q31 -46 44.5 -111.5t13.5 -153.5v-305q0 -92 36 -125q24 -23 69 -23v-2q-14 -25 -30 -43.5t-33 -31.5q-38 -29 -78 -29q-38 0 -66 26q-16 15 -26.5 39.5t-12.5 57.5h-2z" />
<glyph unicode="b" horiz-adv-x="1014" d="M272 199q12 -18 27.5 -33.5t38 -27t52.5 -18.5t71 -7q57 0 104 13.5t84 42.5q52 41 80.5 111.5t28.5 178.5q0 81 -24.5 144t-68.5 105q-81 78 -208 78q-27 0 -56 -8.5t-55 -21t-45.5 -26.5t-28.5 -25v-506zM201 0h-88v1464h159v-647h9q40 50 98.5 77.5t130.5 27.5 q66 0 122.5 -16t102.5 -45q41 -26 73 -60.5t55 -76.5q31 -55 47 -120t16 -137q0 -99 -24 -183q-19 -66 -52 -120.5t-80 -94.5q-50 -43 -114 -66t-142 -23q-40 0 -73.5 5.5t-63.5 18t-57.5 31t-55.5 43.5h-2z" />
<glyph unicode="c" horiz-adv-x="872" d="M80 440q0 114 40 212q29 71 77 127t114 91q47 25 100.5 38.5t114.5 13.5q44 0 87.5 -7.5t84.5 -21.5q71 -24 123 -64l-78 -112q-17 15 -41 27t-52 21q-30 10 -60.5 15.5t-54.5 5.5q-72 0 -123.5 -26.5t-86.5 -71.5q-39 -50 -57 -115t-18 -133q0 -65 14.5 -117.5 t41.5 -94.5q36 -54 93 -83.5t133 -29.5q57 0 118 20.5t114 61.5l63 -136q-30 -19 -66 -33t-75 -25q-89 -23 -182 -23q-67 0 -124 15.5t-104 44.5q-57 35 -98 87t-65 117q-33 89 -33 196z" />
<glyph unicode="d" horiz-adv-x="993" d="M721 684q-28 50 -82 76t-113 26q-77 0 -134 -34q-36 -21 -63 -53.5t-45 -74.5q-17 -40 -25.5 -86t-8.5 -96q0 -89 21 -152q32 -98 112 -141q62 -34 154 -34q28 0 56 6.5t52.5 18t44 26.5t31.5 33v485zM762 0l-41 74h-2q-23 -23 -45.5 -39.5t-48.5 -27.5q-61 -27 -144 -27 q-62 0 -115 17t-98 48q-51 35 -88.5 84.5t-61.5 109.5q-38 94 -38 201q0 49 6.5 94.5t18.5 87.5q18 62 49 113.5t74 89.5q52 47 120.5 72t153.5 25q71 0 122.5 -19.5t96.5 -56.5v618h160v-1464h-119z" />
<glyph unicode="e" horiz-adv-x="952" d="M494 786q-51 0 -94 -18.5t-74.5 -51t-49.5 -77t-20 -96.5h455q0 117 -57.5 180t-159.5 63zM250 434q0 -29 3.5 -56t9.5 -53q13 -51 37 -91.5t60 -68.5q31 -24 69 -37t85 -13q37 0 66.5 5.5t55.5 15.5t47.5 24t41.5 30l57 -114q-59 -47 -134 -71q-39 -13 -80.5 -19 t-84.5 -6q-63 0 -116.5 16t-98.5 45q-51 34 -89 83t-62 109q-18 47 -27.5 98t-9.5 107q0 119 41 222q23 57 56.5 104t78.5 82q47 36 103.5 56t125.5 20q110 0 194 -41q104 -51 153 -158q38 -82 38 -191q0 -23 -3.5 -49t-8.5 -49h-608z" />
<glyph unicode="f" horiz-adv-x="561" d="M563 1333q-20 6 -40 9.5t-42 3.5q-76 0 -116 -48q-41 -49 -41 -135v-262h161v-127h-163v-774h-160v774h-133v127h133v297q0 47 12 87t35 73q40 61 111 95q66 32 147 32q60 0 135 -23z" />
<glyph unicode="g" horiz-adv-x="942" d="M346 -14q-17 -6 -33 -20t-37 -42q-15 -20 -25.5 -44t-10.5 -50q0 -52 47 -84q24 -17 60.5 -26t84.5 -9q55 0 107 11.5t96 31.5q57 27 93 66t36 86q0 29 -12 48t-30.5 30t-42 15.5t-46.5 4.5q-35 0 -65.5 -1t-73.5 -3q-39 -2 -62 -4t-50 -2zM459 801q-33 0 -63 -9t-55 -26 q-45 -30 -68 -78q-21 -42 -21 -96q0 -56 16 -98q23 -62 74 -95q49 -32 117 -32q84 0 137 48q30 27 46 63q22 47 22 114q0 55 -23 99q-13 24 -32.5 44t-42.5 34q-25 15 -52 23.5t-55 8.5zM430 -410q-53 0 -103.5 9t-95.5 27q-38 16 -69 37.5t-51 50.5q-33 47 -33 106 q0 32 12 58.5t31 48.5q14 17 30.5 30.5t33 24t31 18.5t24.5 12q-51 16 -81 50.5t-30 80.5q0 29 12.5 53t32 42.5t44.5 32t50 20.5q-58 25 -107 85q-17 22 -31.5 47.5t-25.5 54.5q-20 54 -20 114q0 45 12.5 84.5t34.5 74.5t52.5 64t66.5 51q45 27 95.5 41.5t103.5 14.5 q35 0 66 -4t59 -12q54 -15 88 -42q20 22 39.5 49t39.5 50l97 -93l-95 -71q39 -36 64 -92q24 -54 24 -123q0 -49 -15 -94.5t-42 -84.5q-42 -59 -103 -97q-45 -28 -100 -44t-118 -16h-64q-17 -2 -33 -7t-29 -13.5t-20.5 -19.5t-7.5 -26q0 -20 19.5 -34.5t62.5 -14.5 q12 0 22.5 0.5t22.5 1t27 1t36 1.5q54 2 108.5 4t100.5 2q57 0 104.5 -15.5t79.5 -49.5q23 -25 36.5 -60.5t13.5 -83.5q0 -50 -18.5 -95t-52.5 -83q-38 -43 -91.5 -76t-118.5 -55q-103 -35 -221 -35z" />
<glyph unicode="h" horiz-adv-x="952" d="M680 0v563q0 82 -32 135q-27 45 -74 68q-45 20 -101 20q-28 0 -57 -10.5t-55 -28.5q-27 -18 -50 -42t-39 -48v-657h-159v1464h159v-669h9q21 31 47 53.5t55 38.5q32 18 66.5 26.5t68.5 8.5q80 0 145 -31q73 -35 117 -102q29 -45 44.5 -99.5t15.5 -116.5v-573h-160z" />
<glyph unicode="i" horiz-adv-x="471" d="M240 1419q18 0 35 -7.5t31 -19.5q16 -14 26 -33.5t10 -41.5q0 -20 -8 -38.5t-22 -32.5q-30 -32 -72 -32q-22 0 -41 7.5t-33 20.5q-15 14 -24 33t-9 42q0 21 9 40.5t24 33.5q14 13 33 20.5t41 7.5zM160 0v774h-80v127h237v-901h-157z" />
<glyph unicode="j" horiz-adv-x="522" d="M264 1419q37 0 66 -26q17 -14 27 -34t10 -42q0 -23 -9.5 -42.5t-26.5 -33.5q-14 -12 -31.5 -19.5t-35.5 -7.5q-20 0 -38 7t-32 19q-17 14 -26.5 34t-9.5 43q0 20 7.5 38t21.5 32q30 32 77 32zM-102 -264q60 0 107 8t82 25q49 24 74 69.5t25 118.5v817h-80v127h240v-942 q0 -150 -77 -241q-66 -78 -190 -108q-40 -10 -85 -15t-96 -5v146z" />
<glyph unicode="k" horiz-adv-x="870" d="M692 0l-282 438h-9l-129 -157v-281h-159v1464h159v-975h9l344 412h166l-285 -338l362 -563h-176z" />
<glyph unicode="l" horiz-adv-x="422" d="M121 1464h160v-1253q0 -59 28 -89t76 -30v-2q-13 -29 -28.5 -49.5t-32.5 -34.5q-18 -14 -37 -20t-39 -6q-59 0 -92 45q-35 49 -35 139v1300z" />
<glyph unicode="m" horiz-adv-x="1542" d="M1270 0v569q0 67 -19 110.5t-54 69.5q-53 37 -142 37q-29 0 -60.5 -11t-60.5 -29q-28 -17 -49.5 -40t-32.5 -47v-659h-160v571q0 73 -23.5 117t-61.5 67q-29 17 -63 24t-71 7q-33 0 -66.5 -15t-62.5 -38q-50 -39 -72 -80v-653h-159v901h110l43 -115h8q24 34 52.5 60.5 t63.5 44.5q60 31 138 31q35 0 66 -5.5t59 -15.5q41 -15 73 -38q45 -32 73 -79h6q29 33 64 58.5t74 43.5q38 17 80 26.5t85 9.5q74 0 135 -24q35 -14 65.5 -36t53.5 -53q32 -42 50 -100t18 -134v-575h-160z" />
<glyph unicode="n" horiz-adv-x="963" d="M690 0v571q0 68 -22 116.5t-73 74.5q-23 11 -52.5 17.5t-67.5 6.5q-27 0 -54 -9t-52 -25q-55 -35 -95 -95v-657h-161v901h110l43 -115h8q29 37 57 63t60 43q29 15 62 22.5t75 7.5q90 0 157 -33q68 -33 110 -98q26 -42 40.5 -95.5t14.5 -120.5v-575h-160z" />
<glyph unicode="o" horiz-adv-x="983" d="M250 451q0 -142 49 -228q31 -53 79.5 -80.5t115.5 -27.5q111 0 171 75q35 43 51.5 108t16.5 153q0 158 -59 244q-62 91 -180 91q-121 0 -183 -86q-61 -85 -61 -249zM80 451q0 60 11 115t31 105q20 49 49.5 90t67.5 73q50 42 113.5 65t141.5 23q55 0 101.5 -11.5 t87.5 -32.5q48 -26 86 -64t65 -86q35 -60 52 -130.5t17 -146.5q0 -75 -16 -143.5t-48 -126.5q-49 -89 -129 -141q-45 -29 -98.5 -44.5t-117.5 -15.5q-66 0 -122 16.5t-103 48.5q-46 31 -81 73.5t-59 95.5q-49 106 -49 237z" />
<glyph unicode="p" horiz-adv-x="993" d="M272 186q11 -15 29 -27.5t40 -21.5q26 -11 52.5 -16.5t46.5 -5.5q78 0 133.5 18.5t90.5 59.5q38 42 54.5 107.5t16.5 158.5q0 160 -62 242q-64 85 -198 85q-68 0 -116 -20.5t-87 -60.5v-519zM272 -390h-159v1291h125l36 -82q43 52 94 77q27 14 57.5 20t63.5 6 q97 0 174 -31q53 -21 94 -55.5t71 -80.5q39 -60 58 -136.5t19 -165.5q0 -71 -12.5 -135t-38.5 -118q-22 -46 -52.5 -83.5t-71.5 -66.5q-48 -34 -108.5 -52t-134.5 -18q-23 0 -58.5 6t-70.5 19q-26 9 -49 22t-37 30v-447z" />
<glyph unicode="q" horiz-adv-x="999" d="M727 713q-40 37 -84.5 58.5t-101.5 21.5q-79 0 -134.5 -27.5t-90.5 -75.5q-34 -46 -50 -107.5t-16 -133.5q0 -75 16.5 -136t51.5 -106q35 -44 88 -68t129 -24q116 0 192 67v531zM727 -390v458q-22 -21 -45 -37t-49 -27q-29 -12 -62.5 -18t-76.5 -6q-52 0 -97.5 10.5 t-84.5 29.5q-63 31 -109.5 81t-75.5 115q-47 105 -47 233q0 119 37 214q23 60 60.5 108.5t89.5 82.5q49 32 110 50t135 18q64 0 130 -29q50 -22 99 -62l50 70h96v-1291h-160z" />
<glyph unicode="r" horiz-adv-x="678" d="M584 760q-22 14 -48.5 20t-52.5 6q-37 0 -67 -12t-54 -32q-22 -19 -39 -44.5t-28.5 -55t-17 -61t-5.5 -63.5v-518h-159v901h116l50 -121h2q46 84 109 115q30 15 65 21t77 6q17 0 44.5 -2.5t64.5 -10.5z" />
<glyph unicode="s" horiz-adv-x="727" d="M125 201q33 -22 63.5 -38t59.5 -27q52 -19 98 -19q74 0 113 41q17 17 25 38.5t8 45.5q0 40 -31 68.5t-80 54.5q-45 24 -87.5 50.5t-74.5 45.5q-35 20 -60.5 43.5t-42.5 49.5q-21 32 -30.5 65.5t-9.5 66.5q0 59 23 103q14 29 36.5 51.5t51.5 39.5q38 22 83.5 32t94.5 10 q38 0 99 -11q38 -8 78.5 -20t78.5 -31l-48 -151q-23 17 -45.5 30.5t-46.5 24.5q-23 10 -47.5 16t-50.5 6q-29 0 -54 -7t-44 -20q-18 -13 -28.5 -30t-10.5 -37q0 -21 4 -36.5t14 -29t27 -26t43 -27.5q32 -18 66.5 -35.5t66.5 -35.5q57 -32 97 -62.5t63 -66.5q35 -52 35 -133 q0 -67 -26 -117q-20 -38 -52 -65.5t-74 -45.5q-38 -17 -83 -24.5t-95 -7.5q-36 0 -71 5.5t-70 15.5q-65 20 -121 50z" />
<glyph unicode="t" horiz-adv-x="602" d="M158 774h-105v127h105v248h159v-248h232v-127h-232v-422q0 -59 7 -101.5t24.5 -70t48 -40.5t78.5 -13q60 0 117 25q6 -32 11.5 -66t10.5 -68q-46 -12 -100 -20t-108 -8q-55 0 -101 23t-78.5 61.5t-50.5 89t-18 106.5v504z" />
<glyph unicode="u" horiz-adv-x="963" d="M272 901v-567q0 -61 8 -104.5t30 -69.5q18 -22 47.5 -32.5t74.5 -10.5q34 0 71 10t71 27q40 20 71 50t45 68v629h160v-901h-123l-35 102h-2q-19 -28 -49.5 -50.5t-69.5 -38.5q-38 -16 -83 -24.5t-95 -8.5q-95 0 -160 40q-52 33 -80 90q-40 77 -40 197v594h159z" />
<glyph unicode="v" horiz-adv-x="924" d="M479 -10h-47l-418 911h164l285 -639h2l285 639h159z" />
<glyph unicode="w" horiz-adv-x="1272" d="M942 -10h-43l-262 618l-264 -618h-43l-324 911h170l195 -592l250 602h51l233 -602l209 592h152z" />
<glyph unicode="x" horiz-adv-x="963" d="M723 0l-244 356h-2l-244 -356h-186l340 465l-319 436h184l223 -323h2l217 323h180l-313 -434l348 -467h-186z" />
<glyph unicode="y" horiz-adv-x="952" d="M510 -201q-15 -41 -45 -76t-72 -63q-49 -33 -108.5 -51.5t-120.5 -18.5v140q54 0 102.5 16t81.5 47q24 22 37.5 51t13.5 64q0 25 -5 61.5t-23 85.5l-320 846h160l278 -735h3q30 88 61.5 180.5t64.5 186t66 186.5t64 182h153z" />
<glyph unicode="z" horiz-adv-x="831" d="M295 145h498v-145h-744v41l502 715h-492v145h729v-45z" />
<glyph unicode="{" horiz-adv-x="573" d="M508 -403q-83 0 -155.5 26.5t-120.5 80.5q-29 33 -45.5 76t-16.5 97q0 30 12 73.5t27 93t27 100.5t12 96q0 48 -14.5 91.5t-40.5 78.5q-28 37 -68.5 60.5t-91.5 29.5v61q58 6 101.5 35t71.5 74q20 32 31 70.5t11 80.5q0 45 -12 94.5t-27 98.5t-27 95t-12 85 q0 56 20.5 101t57.5 79q47 44 114 67t144 23h67v-98h-45q-96 0 -142 -64q-36 -51 -36 -137q0 -48 10 -89.5t22 -80.5t22 -77t10 -80q0 -36 -8 -75t-29 -77q-23 -42 -63 -82.5t-105 -75.5q45 -17 81 -48t63 -72q29 -43 45 -92t16 -95q0 -35 -10 -75t-22 -82t-22 -85t-10 -83 q0 -42 8 -74.5t23 -56.5q23 -37 61 -53.5t86 -16.5h45v-98h-65z" />
<glyph unicode="|" d="M463 -281v1745h164v-1745h-164z" />
<glyph unicode="}" horiz-adv-x="573" d="M0 -403v98h45q47 0 84 15t60 50q34 49 34 136q0 40 -10 83t-21.5 85t-21.5 82t-10 75q0 41 12 83t35 81q27 48 67 86t91 57q-60 32 -98.5 69.5t-61.5 75.5q-26 42 -35.5 84t-9.5 81q0 42 10 80t21.5 77t21.5 80.5t10 89.5q0 90 -39 141q-46 60 -139 60h-45v98h68 q82 0 152 -26t117 -76q31 -33 48.5 -75t17.5 -93q0 -39 -12 -85t-26.5 -95t-26.5 -98.5t-12 -94.5t12 -85t35 -74q28 -42 70.5 -68.5t97.5 -32.5v-61q-69 -8 -117.5 -47t-73.5 -96q-24 -54 -24 -117q0 -45 12 -96t26.5 -100.5t26.5 -93t12 -73.5q0 -49 -14 -89t-38 -72 q-46 -60 -121.5 -89.5t-163.5 -29.5h-66z" />
<glyph unicode="~" d="M905 705q-10 -63 -31 -109t-50 -75q-44 -44 -99 -44q-48 0 -100.5 12t-101.5 27t-91 27t-70 12q-74 0 -114 -78h-76q2 48 19 93t47 78q24 26 55 41.5t69 15.5q53 0 102 -12.5t94 -27.5t86 -27.5t77 -12.5q86 0 117 80h67z" />
<glyph unicode="&#xa1;" horiz-adv-x="752" d="M375 922q45 0 80 -27q22 -17 34.5 -42.5t12.5 -55.5q0 -49 -32 -84q-17 -20 -42 -31.5t-53 -11.5q-55 0 -91 38q-17 17 -26.5 40t-9.5 49q0 51 33 86q17 18 41 28.5t53 10.5zM410 506q19 -111 30.5 -197.5t18 -155t8.5 -123t2 -100.5v-340h-176v340q0 47 2 101.5t8.5 123 t18.5 154.5t32 197h56z" />
<glyph unicode="&#xa2;" d="M365 559q0 -110 30 -188q34 -86 103 -127l151 643q-89 0 -151 -37q-29 -17 -51 -41.5t-38 -53.5q-23 -42 -33.5 -91.5t-10.5 -104.5zM465 104q-39 16 -72.5 40t-61.5 54q-68 74 -100 177q-26 84 -26 176q0 67 13.5 125.5t38.5 108.5q26 51 61.5 92t79.5 70 q52 35 111.5 53t125.5 18h17q7 0 14.5 -0.5t13.5 -1.5l47 196h94l-51 -211q50 -12 92 -28.5t68 -36.5l-64 -107q-26 14 -59.5 25.5t-65.5 19.5l-157 -663q33 -6 71 -6q49 0 98 12q32 8 63.5 22t64.5 35l51 -110q-37 -22 -76.5 -39.5t-81.5 -28.5q-72 -20 -151 -20 q-19 0 -36 1t-34 3l-55 -234h-95z" />
<glyph unicode="&#xa3;" d="M152 776h84v185q0 70 11.5 133.5t34.5 118.5q22 51 54 93t75 72q45 32 102 49t126 17q49 0 93.5 -9.5t82.5 -26.5q34 -14 61.5 -33t47.5 -40q-23 -31 -42.5 -59t-39.5 -57q-19 21 -41 37t-49 27q-49 20 -117 20q-88 0 -142 -60q-35 -39 -54 -103.5t-19 -156.5v-207h201 v-127h-201v-491h235q85 0 149 34q54 28 93 76q31 -24 64 -49.5t65 -50.5q-54 -82 -158 -123q-111 -45 -282 -45h-443v119q48 17 70.5 52.5t22.5 88.5v389h-84v127z" />
<glyph unicode="&#xa5;" horiz-adv-x="1167" d="M260 623h242v32l-486 809h181l387 -657h8l387 657h178l-483 -809v-32h241v-119h-241v-127h241v-119h-241v-258h-172v258h-242v119h242v127h-242v119z" />
<glyph unicode="&#xa6;" horiz-adv-x="1073" d="M481 -197v723h145v-723h-145zM481 741v723h145v-723h-145z" />
<glyph unicode="&#xa7;" d="M487 901q-25 -8 -45 -23q-17 -13 -31.5 -35t-15.5 -57q0 -49 37.5 -81.5t93.5 -55.5q19 -8 46.5 -17.5t58.5 -19.5q20 -6 43.5 -14.5t48.5 -17.5h8q16 26 27.5 60t11.5 65q0 48 -26 80.5t-74 52.5q-10 5 -22 8t-23 8q-25 8 -56.5 18.5t-79.5 28.5h-2zM930 719 q0 -44 -23 -88q-24 -49 -71 -96q70 -52 100 -113q25 -51 25 -111q0 -109 -48 -183q-43 -66 -118 -103q-48 -23 -105 -34t-121 -11q-110 0 -197 26q-81 25 -139 66l66 155q45 -40 108 -65q35 -13 72.5 -20t79.5 -7q123 0 179 47q46 39 46 109q0 32 -13 56t-42 45 q-35 26 -94.5 51t-147.5 57q-50 18 -93.5 41.5t-76 54t-51 69.5t-18.5 89q0 34 9 61t25.5 50t39.5 42t51 37h-2q-26 16 -51.5 40.5t-45.5 62.5q-15 29 -24.5 67t-9.5 86q0 42 11 77t31 64q22 32 52 57t67 43q44 22 94 33t101 11q45 0 93 -8t91 -22q35 -11 64.5 -25.5 t48.5 -30.5l-55 -160q-51 48 -112 73t-118 25q-96 0 -146 -38q-48 -36 -48 -103q0 -49 31 -83q26 -29 74.5 -51t123.5 -48q92 -32 149 -62.5t89 -68.5q27 -32 38 -71.5t11 -92.5z" />
<glyph unicode="&#xa8;" horiz-adv-x="557" d="M449 1419q20 0 38.5 -8.5t32.5 -22.5t22.5 -32.5t8.5 -38.5q0 -22 -9 -41t-24 -33q-14 -14 -32 -21.5t-37 -7.5q-23 0 -44 9t-35 24q-28 28 -28 70q0 20 8.5 38.5t22.5 32.5t33.5 22.5t42.5 8.5zM113 1419q19 0 36 -7.5t31 -20.5q16 -14 25.5 -33.5t9.5 -40.5 q0 -20 -8.5 -39t-22.5 -33t-32.5 -22.5t-38.5 -8.5q-25 0 -46.5 9.5t-35.5 26.5q-25 28 -25 67q0 21 9 40t24 33q14 14 33 21.5t41 7.5z" />
<glyph unicode="&#xa9;" horiz-adv-x="930" d="M102 1122q0 73 27 137.5t75 113.5q51 52 118 82t143 30q72 0 136 -27t113 -75q52 -51 82.5 -118t30.5 -143q0 -71 -26.5 -134.5t-72.5 -112.5q-50 -53 -117.5 -84t-145.5 -31q-67 0 -127 23t-108 64q-59 51 -93.5 122t-34.5 153zM768 1122q0 66 -25 122t-69 98 q-41 39 -94.5 61t-114.5 22q-66 0 -123.5 -26.5t-99.5 -72.5q-38 -41 -59 -93t-21 -111q0 -68 28 -127t76 -101q40 -35 91 -55t108 -20q67 0 124 26.5t99 71.5q38 41 59 93t21 112zM604 948q-28 -28 -61.5 -40.5t-75.5 -12.5q-48 0 -83.5 18.5t-59 50t-34.5 73t-11 87.5 q0 45 12.5 86.5t36.5 74t60 52t83 19.5q75 0 115 -25l-21 -51q-29 20 -92 20q-35 0 -59.5 -16t-40 -41.5t-22.5 -58t-7 -64.5t7.5 -62.5t23.5 -54.5t41 -38.5t59 -14.5q63 0 94 43z" />
<glyph unicode="&#xaa;" horiz-adv-x="752" d="M491 1157q-30 5 -48.5 6.5t-29.5 1.5q-58 0 -101 -17t-65 -44q-11 -15 -18 -33.5t-7 -40.5q0 -24 6 -44t21 -34q28 -25 78 -25t86 16q38 16 78 53v161zM503 924q-13 -15 -32.5 -33.5t-51.5 -32.5q-23 -11 -54 -18t-72 -7q-33 0 -62.5 10t-54.5 27q-15 11 -28 24t-23 30 q-28 44 -28 95q0 28 6.5 52.5t17.5 44.5q19 32 46.5 55t61.5 39q36 17 77 26t82 9q22 0 48 -4t55 -15q0 49 -8.5 83t-30.5 54q-34 33 -107 33q-24 0 -45 -3t-41 -8q-23 -7 -42 -18.5t-38 -25.5l-44 89q22 14 50 26t60 20q25 7 51 11t51 4q75 0 127 -15q61 -19 94 -63 q24 -32 34.5 -78t10.5 -108v-212q0 -65 28 -87q20 -17 53 -17v-1q-20 -33 -49 -52q-29 -20 -60 -20q-30 0 -51 18q-12 11 -20 27.5t-10 40.5h-1z" />
<glyph unicode="&#xab;" horiz-adv-x="1073" d="M160 391v111l340 274v-153l-226 -183l226 -164v-151zM573 391v111l340 274v-153l-225 -183l225 -164v-151z" />
<glyph unicode="&#xac;" horiz-adv-x="1073" d="M961 887v-488h-142v346h-696v142h838z" />
<glyph unicode="&#xae;" horiz-adv-x="932" d="M102 1124q0 70 25 132t70 111q51 56 120.5 88t149.5 32q82 0 153 -34.5t122 -94.5q41 -48 64 -108t23 -126q0 -73 -27.5 -138t-75.5 -115q-50 -51 -116.5 -81t-142.5 -30q-77 0 -143.5 29t-116.5 80q-49 50 -77 115t-28 140zM770 1124q0 58 -20 109t-55 91 q-42 48 -100.5 75.5t-127.5 27.5t-129 -28.5t-102 -77.5q-35 -40 -54.5 -90t-19.5 -107q0 -60 21 -112.5t59 -93.5q42 -46 100 -72.5t125 -26.5t124.5 27t99.5 73q37 41 58 93t21 112zM580 905l-115 191h-64v-191h-63v447h115q159 0 159 -125q0 -85 -86 -121l123 -201h-69z M401 1296v-147q5 0 14.5 -1t26.5 -1q27 0 47 2t33.5 10t20 23.5t6.5 42.5q0 71 -96 71h-52z" />
<glyph unicode="&#xaf;" horiz-adv-x="678" d="M6 1235v129h668v-129h-668z" />
<glyph unicode="&#xb0;" horiz-adv-x="672" d="M340 1356q-52 0 -90 -33q-22 -19 -34.5 -45.5t-12.5 -58.5t12.5 -59.5t35.5 -46.5q18 -15 40.5 -23.5t48.5 -8.5q27 0 50.5 9t41.5 25q21 19 33 45.5t12 58.5q0 27 -9 51t-26 42q-19 20 -45 32t-57 12zM340 989q-51 0 -95 19.5t-76 54.5q-29 31 -44.5 70.5t-15.5 85.5 q0 48 18 88.5t49 70.5q32 31 74 48.5t90 17.5q53 0 98.5 -21t77.5 -57q26 -29 40.5 -66.5t14.5 -80.5q0 -48 -17.5 -89.5t-48.5 -72.5q-32 -32 -74 -50t-91 -18z" />
<glyph unicode="&#xb1;" d="M1012 135v-135h-867v135h867zM649 700h363v-135h-363v-360h-139v360h-365v135h365v361h139v-361z" />
<glyph unicode="&#xb2;" horiz-adv-x="924" d="M158 618v29l311 406q24 31 40 57.5t26.5 50.5t15 47t4.5 47q0 50 -37 84.5t-106 34.5q-47 0 -95 -27t-79 -73l-82 84q49 62 107 93q64 34 147 34q55 0 102.5 -13.5t83.5 -38.5q45 -31 69.5 -76.5t24.5 -103.5q0 -49 -25 -110.5t-83 -136.5l-215 -283h389v-105h-598z" />
<glyph unicode="&#xb3;" horiz-adv-x="930" d="M709 840q0 -109 -67 -174q-41 -40 -104 -61t-147 -21q-29 0 -58.5 5t-56.5 14q-32 11 -60 25t-48 31l63 101q66 -66 162 -66q85 0 128 30q52 37 52 126q0 72 -50 116q-25 22 -61 34t-81 12h-10v102h6q86 0 126 36q38 32 38 99q0 73 -45 106q-37 27 -111 27 q-85 0 -133 -51l-57 86q57 74 202 74q57 0 109 -16t92 -46q36 -28 58 -67t22 -90q0 -35 -11 -67t-30 -58q-20 -29 -47.5 -49.5t-59.5 -30.5q92 -27 140 -95q19 -28 29 -61t10 -71z" />
<glyph unicode="&#xb4;" horiz-adv-x="369" d="M2 1112l197 352h176l-254 -352h-119z" />
<glyph unicode="&#xb5;" horiz-adv-x="963" d="M113 901h159v-600q0 -51 9 -87t32 -59q19 -19 48 -28.5t71 -9.5q36 0 76 11t76 31q37 20 65 49t41 64v629h160v-901h-113l-45 121h-2q-17 -29 -40 -53t-55 -41t-71 -27t-90 -10q-43 0 -90 14q-43 13 -72 33v-427h-159v1291z" />
<glyph unicode="&#xb6;" horiz-adv-x="1229" d="M846 -254v1620h-182v-1620h-136v907q-83 0 -145 20t-107 62q-51 49 -76.5 129t-25.5 195q0 69 14.5 136.5t46.5 123.5q36 65 95.5 105t146.5 40h504v-1718h-135z" />
<glyph unicode="&#xb7;" horiz-adv-x="752" d="M375 791q29 0 55 -11t46 -31t31 -45.5t11 -54.5t-11.5 -54.5t-31.5 -45.5q-20 -19 -45.5 -30t-54.5 -11q-31 0 -58 13t-47 34q-17 19 -27 43t-10 51q0 30 12.5 57t34.5 47q19 17 43 27.5t52 10.5z" />
<glyph unicode="&#xb8;" horiz-adv-x="319" d="M20 -311q44 0 79.5 5t60.5 17q41 20 41 60q0 37 -21.5 59.5t-66.5 22.5v98q43 0 79 -13t61 -40q21 -22 32.5 -53.5t11.5 -73.5q0 -50 -19.5 -85t-55.5 -57q-64 -39 -179 -39z" />
<glyph unicode="&#xb9;" horiz-adv-x="924" d="M436 602v651q-23 -12 -46.5 -26.5t-49.5 -28.5q-11 -6 -25 -13.5t-28 -15.5t-26.5 -15.5t-20.5 -12.5v112q40 20 79.5 43.5t79.5 51.5q42 31 72.5 57t56.5 57h43v-860h-135z" />
<glyph unicode="&#xba;" horiz-adv-x="752" d="M192 1167q0 -105 36 -164q45 -73 148 -73q117 0 161 95q25 54 25 142q0 114 -46 174t-140 60q-75 0 -120 -39q-64 -57 -64 -195zM69 1167q0 75 24 137t69 106q40 38 94 59.5t120 21.5q129 0 206 -66q51 -43 76 -109t25 -149q0 -107 -42 -184q-37 -68 -103.5 -106.5 t-161.5 -38.5q-76 0 -134 25.5t-97 70.5q-38 44 -57 103t-19 130z" />
<glyph unicode="&#xbb;" horiz-adv-x="1073" d="M160 125v151l225 164l-225 183v153l340 -274v-111zM573 125v151l226 164l-226 183v153l340 -274v-111z" />
<glyph unicode="&#xbc;" horiz-adv-x="1667" d="M1358 643l-281 -311h281v311zM1481 240v-240h-123v240h-434v67l510 576h47v-551h96v-92h-96zM440 0h-153l897 1464h153zM285 602v651q-23 -12 -47 -26.5t-50 -28.5q-10 -6 -24 -13.5t-28 -15.5t-26.5 -15.5t-21.5 -12.5v112q40 20 80 43.5t80 51.5q42 31 72.5 57t56.5 57 h43v-860h-135z" />
<glyph unicode="&#xbd;" horiz-adv-x="1667" d="M285 602v651q-23 -12 -47 -26.5t-50 -28.5q-10 -6 -24 -13.5t-28 -15.5t-26.5 -15.5t-21.5 -12.5v112q40 20 80 43.5t80 51.5q42 31 72.5 57t56.5 57h43v-860h-135zM401 0h-153l897 1464h153zM995 0v29l312 405q24 31 40 57.5t26.5 51t15 47.5t4.5 47t-9.5 46t-28 38 t-45 25.5t-61.5 9.5q-46 0 -94.5 -27t-79.5 -74l-82 84q29 35 60.5 61t67.5 42q56 24 126 24q50 0 93 -11t78 -31q51 -30 80.5 -78t29.5 -111q0 -50 -25 -111.5t-84 -136.5l-215 -283h389v-104h-598z" />
<glyph unicode="&#xbe;" horiz-adv-x="1667" d="M1333 643l-280 -311h280v311zM1456 240v-240h-123v240h-434v67l510 576h47v-551h96v-92h-96zM96 659l64 101q32 -32 72 -49t90 -17q76 0 121 29q29 19 44 50t15 77q0 29 -12.5 55.5t-34.5 48.5q-27 26 -64.5 42t-81.5 16h-10v102h6q96 0 136 46q28 32 28 89q0 60 -41 96 q-20 17 -49 27t-66 10q-32 0 -68 -13t-65 -38l-57 86q40 35 96 54.5t113 19.5q56 0 106.5 -15.5t88.5 -44.5q36 -28 57.5 -68t21.5 -91q0 -35 -10.5 -67t-29.5 -58q-20 -29 -47.5 -49.5t-59.5 -30.5q89 -27 136 -92q20 -28 31 -62t11 -73q0 -51 -16 -92.5t-45 -73.5 q-41 -44 -103 -67t-143 -23q-32 0 -66 6t-65 16t-58 24t-45 29zM496 0h-154l897 1464h154z" />
<glyph unicode="&#xbf;" horiz-adv-x="893" d="M502 922q26 0 49 -9.5t40 -26.5t27.5 -39.5t10.5 -49.5q0 -49 -32 -84q-17 -20 -42 -31.5t-53 -11.5t-52.5 11t-41.5 31q-15 17 -24 38.5t-9 46.5q0 43 25 76q17 23 43.5 36t58.5 13zM580 557q14 -29 23 -59.5t9 -55.5q0 -35 -4.5 -64.5t-15.5 -56.5q-17 -44 -48 -85 t-79 -91l-57 -61q-28 -29 -47.5 -53.5t-32 -48t-18 -47t-5.5 -50.5q0 -76 43 -114q26 -23 68 -33t98 -10q50 0 99 15q26 8 50 20.5t44 29.5l63 -135q-54 -35 -133 -53q-70 -15 -160 -15q-66 0 -125.5 17.5t-106.5 51.5q-51 36 -80.5 89t-29.5 121q0 65 26 124t79 111 l147 148q27 26 44.5 55.5t28.5 61.5q9 28 13 57t4 59q0 8 -2 26t-8 46h113z" />
<glyph unicode="&#xc0;" horiz-adv-x="1249" d="M641 1124h-8l-254 -675h495zM1028 0l-100 315h-596l-111 -315h-194l598 1485h41l557 -1485h-195zM659 1540l-254 352h176l197 -352h-119z" />
<glyph unicode="&#xc1;" horiz-adv-x="1249" d="M641 1124h-8l-254 -675h495zM1028 0l-100 315h-596l-111 -315h-194l598 1485h41l557 -1485h-195zM524 1540l197 352h176l-254 -352h-119z" />
<glyph unicode="&#xc2;" horiz-adv-x="1249" d="M641 1124h-8l-254 -675h495zM1028 0l-100 315h-596l-111 -315h-194l598 1485h41l557 -1485h-195zM846 1540l-203 223l-203 -223h-119l230 352h184l230 -352h-119z" />
<glyph unicode="&#xc3;" horiz-adv-x="1249" d="M641 1124h-8l-254 -675h495zM1028 0l-100 315h-596l-111 -315h-194l598 1485h41l557 -1485h-195zM963 1749q-29 -116 -84 -167q-45 -42 -109 -42q-40 0 -73.5 12t-62.5 27t-55.5 27t-51.5 12q-71 0 -109 -78h-90q5 39 22.5 79.5t45.5 72.5q23 26 51.5 41.5t62.5 15.5 q51 0 86 -12t62.5 -27t52.5 -27t55 -12q42 0 68.5 20t40.5 58h88z" />
<glyph unicode="&#xc4;" horiz-adv-x="1249" d="M641 1124h-8l-254 -675h495zM1028 0l-100 315h-596l-111 -315h-194l598 1485h41l557 -1485h-195zM814 1745q20 0 38.5 -8.5t32.5 -22.5t22.5 -32.5t8.5 -38.5q0 -22 -9 -41t-24 -33q-14 -14 -32 -21.5t-37 -7.5q-23 0 -44 9t-35 24q-28 28 -28 70q0 20 8.5 38.5 t22.5 32.5t33.5 22.5t42.5 8.5zM478 1745q19 0 36 -7.5t31 -20.5q16 -14 25.5 -33.5t9.5 -40.5q0 -20 -8.5 -39t-22.5 -33t-32.5 -22.5t-38.5 -8.5q-25 0 -46.5 9.5t-35.5 26.5q-25 28 -25 67q0 21 9 40t24 33q14 14 33 21.5t41 7.5z" />
<glyph unicode="&#xc5;" horiz-adv-x="1249" d="M641 1124h-8l-254 -675h495zM1028 0l-100 315h-596l-111 -315h-194l598 1485h41l557 -1485h-195zM641 1937q42 0 79.5 -16t66.5 -43q30 -29 47.5 -67t17.5 -82q0 -43 -15.5 -80.5t-43.5 -66.5q-29 -29 -68 -46.5t-84 -17.5q-42 0 -79.5 15.5t-66.5 42.5 q-30 29 -47.5 68.5t-17.5 84.5q0 47 20 87.5t54 69.5q28 24 63 37.5t74 13.5zM641 1628q20 0 37 7t31 19q15 14 24 33t9 42q0 41 -28 69q-29 29 -73 29q-22 0 -41 -8.5t-33 -22.5q-13 -13 -20.5 -30t-7.5 -37q0 -41 29 -70q14 -14 33 -22.5t40 -8.5z" />
<glyph unicode="&#xc6;" horiz-adv-x="1847" d="M877 1145h-9l-401 -694h410v694zM1739 1464v-157h-690v-439h495v-147h-495v-563h680v-158h-852v311h-482l-174 -311h-194l845 1464h867z" />
<glyph unicode="&#xc7;" horiz-adv-x="1403" d="M1169 1245q-51 38 -140 63q-43 12 -91.5 18.5t-99.5 6.5q-88 0 -163 -23t-138 -65q-75 -49 -129 -118t-86 -150q-46 -113 -46 -234q0 -75 16 -145t45 -134q35 -75 88 -137.5t123 -106.5q63 -39 137 -61t159 -22q51 0 101 10t97 29q45 18 82.5 42.5t65.5 55.5l96 -133 q-45 -45 -99 -76t-116 -51q-54 -17 -113 -25.5t-122 -8.5q-106 0 -198 23.5t-170 67.5q-101 56 -176 139.5t-123 185.5q-38 81 -57.5 168.5t-19.5 180.5q0 82 17.5 161.5t50.5 152.5q45 99 116.5 181t166.5 141q85 52 184 81t213 29q59 0 114.5 -7.5t106.5 -21.5 q48 -13 88.5 -30t75.5 -37zM659 -311q44 0 79.5 5t60.5 17q41 20 41 60q0 37 -21.5 59.5t-66.5 22.5v98q43 0 79 -13t61 -40q21 -22 32.5 -53.5t11.5 -73.5q0 -50 -19.5 -85t-55.5 -57q-64 -39 -179 -39z" />
<glyph unicode="&#xc8;" horiz-adv-x="1124" d="M326 1307v-439h495v-147h-495v-563h680v-158h-852v1464h862v-157h-690zM588 1540l-254 352h176l197 -352h-119z" />
<glyph unicode="&#xc9;" horiz-adv-x="1124" d="M326 1307v-439h495v-147h-495v-563h680v-158h-852v1464h862v-157h-690zM489 1540l197 352h176l-254 -352h-119z" />
<glyph unicode="&#xca;" horiz-adv-x="1124" d="M326 1307v-439h495v-147h-495v-563h680v-158h-852v1464h862v-157h-690zM793 1540l-203 223l-203 -223h-119l230 352h184l230 -352h-119z" />
<glyph unicode="&#xcb;" horiz-adv-x="1124" d="M326 1307v-439h495v-147h-495v-563h680v-158h-852v1464h862v-157h-690zM748 1745q20 0 38.5 -8.5t32.5 -22.5t22.5 -32.5t8.5 -38.5q0 -22 -9 -41t-24 -33q-14 -14 -32 -21.5t-37 -7.5q-23 0 -44 9t-35 24q-28 28 -28 70q0 20 8.5 38.5t22.5 32.5t33.5 22.5t42.5 8.5z M412 1745q19 0 36 -7.5t31 -20.5q16 -14 25.5 -33.5t9.5 -40.5q0 -20 -8.5 -39t-22.5 -33t-32.5 -22.5t-38.5 -8.5q-25 0 -46.5 9.5t-35.5 26.5q-25 28 -25 67q0 21 9 40t24 33q14 14 33 21.5t41 7.5z" />
<glyph unicode="&#xcc;" horiz-adv-x="471" d="M150 0v1464h172v-1464h-172zM256 1540l-254 352h176l197 -352h-119z" />
<glyph unicode="&#xcd;" horiz-adv-x="471" d="M150 0v1464h172v-1464h-172zM129 1540l197 352h176l-254 -352h-119z" />
<glyph unicode="&#xce;" horiz-adv-x="471" d="M150 0v1464h172v-1464h-172zM440 1540l-203 223l-203 -223h-119l230 352h184l230 -352h-119z" />
<glyph unicode="&#xcf;" horiz-adv-x="471" d="M150 0v1464h172v-1464h-172zM407 1745q20 0 38.5 -8.5t32.5 -22.5t22.5 -32.5t8.5 -38.5q0 -22 -9 -41t-24 -33q-14 -14 -32 -21.5t-37 -7.5q-23 0 -44 9t-35 24q-28 28 -28 70q0 20 8.5 38.5t22.5 32.5t33.5 22.5t42.5 8.5zM71 1745q19 0 36 -7.5t31 -20.5 q16 -14 25.5 -33.5t9.5 -40.5q0 -20 -8.5 -39t-22.5 -33t-32.5 -22.5t-38.5 -8.5q-25 0 -46.5 9.5t-35.5 26.5q-25 28 -25 67q0 21 9 40t24 33q14 14 33 21.5t41 7.5z" />
<glyph unicode="&#xd0;" horiz-adv-x="1290" d="M326 844h170v-152h-170v-522q22 -4 49.5 -6t57 -3.5t58 -2t52.5 -0.5q76 0 137.5 18.5t111.5 51.5q51 34 88.5 80t64.5 103q37 78 54 170.5t17 192.5q0 69 -8 128.5t-23 110.5q-39 131 -131 207q-119 97 -328 97q-9 0 -29.5 -0.5t-47.5 -1.5t-59 -3t-64 -5v-463zM25 844 h129v620q145 7 244.5 9t140.5 2q91 0 169.5 -17t146.5 -49q75 -35 134 -87.5t103 -120.5q108 -167 108 -406q0 -196 -45 -345q-62 -204 -206 -314q-178 -136 -478 -136h-317v692h-129v152z" />
<glyph unicode="&#xd1;" horiz-adv-x="1356" d="M1163 -12l-839 1063h-2v-1051h-168v1464h59l819 -1038h2v1038h168v-1476h-39zM977 1749q-29 -116 -84 -167q-45 -42 -109 -42q-40 0 -73.5 12t-62.5 27t-55.5 27t-51.5 12q-71 0 -109 -78h-90q5 39 22.5 79.5t45.5 72.5q23 26 51.5 41.5t62.5 15.5q51 0 86 -12t62.5 -27 t52.5 -27t55 -12q42 0 68.5 20t40.5 58h88z" />
<glyph unicode="&#xd2;" horiz-adv-x="1679" d="M274 745q0 -148 58 -275q34 -75 84.5 -135.5t116.5 -105.5t143 -68.5t164 -23.5q84 0 156.5 20.5t134.5 58.5q74 45 129.5 111.5t90.5 149.5q52 124 52 268q0 84 -19.5 161t-57.5 145q-38 69 -92.5 123.5t-124.5 92.5q-58 32 -125.5 49t-143.5 17q-88 0 -166 -24.5 t-144 -69.5t-117.5 -106t-84.5 -135q-26 -58 -40 -121.5t-14 -131.5zM90 745q0 92 21 177t60 162q48 93 118 168.5t159 129.5q85 52 184 80.5t208 28.5q96 0 183 -21.5t165 -61.5q111 -57 196 -146t137 -202q33 -72 50.5 -151t17.5 -164q0 -186 -73 -343 q-47 -102 -120.5 -183.5t-169.5 -137.5q-83 -48 -180 -74.5t-206 -26.5q-115 0 -217 29.5t-189 84.5q-86 54 -153 129.5t-112 168.5q-38 79 -58.5 167.5t-20.5 185.5zM825 1540l-254 352h176l197 -352h-119z" />
<glyph unicode="&#xd3;" horiz-adv-x="1679" d="M274 745q0 -148 58 -275q34 -75 84.5 -135.5t116.5 -105.5t143 -68.5t164 -23.5q84 0 156.5 20.5t134.5 58.5q74 45 129.5 111.5t90.5 149.5q52 124 52 268q0 84 -19.5 161t-57.5 145q-38 69 -92.5 123.5t-124.5 92.5q-58 32 -125.5 49t-143.5 17q-88 0 -166 -24.5 t-144 -69.5t-117.5 -106t-84.5 -135q-26 -58 -40 -121.5t-14 -131.5zM90 745q0 92 21 177t60 162q48 93 118 168.5t159 129.5q85 52 184 80.5t208 28.5q96 0 183 -21.5t165 -61.5q111 -57 196 -146t137 -202q33 -72 50.5 -151t17.5 -164q0 -186 -73 -343 q-47 -102 -120.5 -183.5t-169.5 -137.5q-83 -48 -180 -74.5t-206 -26.5q-115 0 -217 29.5t-189 84.5q-86 54 -153 129.5t-112 168.5q-38 79 -58.5 167.5t-20.5 185.5zM719 1540l197 352h176l-254 -352h-119z" />
<glyph unicode="&#xd4;" horiz-adv-x="1679" d="M274 745q0 -148 58 -275q34 -75 84.5 -135.5t116.5 -105.5t143 -68.5t164 -23.5q84 0 156.5 20.5t134.5 58.5q74 45 129.5 111.5t90.5 149.5q52 124 52 268q0 84 -19.5 161t-57.5 145q-38 69 -92.5 123.5t-124.5 92.5q-58 32 -125.5 49t-143.5 17q-88 0 -166 -24.5 t-144 -69.5t-117.5 -106t-84.5 -135q-26 -58 -40 -121.5t-14 -131.5zM90 745q0 92 21 177t60 162q48 93 118 168.5t159 129.5q85 52 184 80.5t208 28.5q96 0 183 -21.5t165 -61.5q111 -57 196 -146t137 -202q33 -72 50.5 -151t17.5 -164q0 -186 -73 -343 q-47 -102 -120.5 -183.5t-169.5 -137.5q-83 -48 -180 -74.5t-206 -26.5q-115 0 -217 29.5t-189 84.5q-86 54 -153 129.5t-112 168.5q-38 79 -58.5 167.5t-20.5 185.5zM1035 1540l-203 223l-203 -223h-119l230 352h184l230 -352h-119z" />
<glyph unicode="&#xd5;" horiz-adv-x="1679" d="M274 745q0 -148 58 -275q34 -75 84.5 -135.5t116.5 -105.5t143 -68.5t164 -23.5q84 0 156.5 20.5t134.5 58.5q74 45 129.5 111.5t90.5 149.5q52 124 52 268q0 84 -19.5 161t-57.5 145q-38 69 -92.5 123.5t-124.5 92.5q-58 32 -125.5 49t-143.5 17q-88 0 -166 -24.5 t-144 -69.5t-117.5 -106t-84.5 -135q-26 -58 -40 -121.5t-14 -131.5zM90 745q0 92 21 177t60 162q48 93 118 168.5t159 129.5q85 52 184 80.5t208 28.5q96 0 183 -21.5t165 -61.5q111 -57 196 -146t137 -202q33 -72 50.5 -151t17.5 -164q0 -186 -73 -343 q-47 -102 -120.5 -183.5t-169.5 -137.5q-83 -48 -180 -74.5t-206 -26.5q-115 0 -217 29.5t-189 84.5q-86 54 -153 129.5t-112 168.5q-38 79 -58.5 167.5t-20.5 185.5zM1149 1749q-29 -116 -84 -167q-45 -42 -109 -42q-40 0 -73.5 12t-62.5 27t-55.5 27t-51.5 12 q-71 0 -109 -78h-90q5 39 22.5 79.5t45.5 72.5q23 26 51.5 41.5t62.5 15.5q51 0 86 -12t62.5 -27t52.5 -27t55 -12q42 0 68.5 20t40.5 58h88z" />
<glyph unicode="&#xd6;" horiz-adv-x="1679" d="M274 745q0 -148 58 -275q34 -75 84.5 -135.5t116.5 -105.5t143 -68.5t164 -23.5q84 0 156.5 20.5t134.5 58.5q74 45 129.5 111.5t90.5 149.5q52 124 52 268q0 84 -19.5 161t-57.5 145q-38 69 -92.5 123.5t-124.5 92.5q-58 32 -125.5 49t-143.5 17q-88 0 -166 -24.5 t-144 -69.5t-117.5 -106t-84.5 -135q-26 -58 -40 -121.5t-14 -131.5zM90 745q0 92 21 177t60 162q48 93 118 168.5t159 129.5q85 52 184 80.5t208 28.5q96 0 183 -21.5t165 -61.5q111 -57 196 -146t137 -202q33 -72 50.5 -151t17.5 -164q0 -186 -73 -343 q-47 -102 -120.5 -183.5t-169.5 -137.5q-83 -48 -180 -74.5t-206 -26.5q-115 0 -217 29.5t-189 84.5q-86 54 -153 129.5t-112 168.5q-38 79 -58.5 167.5t-20.5 185.5zM1010 1745q20 0 38.5 -8.5t32.5 -22.5t22.5 -32.5t8.5 -38.5q0 -22 -9 -41t-24 -33q-14 -14 -32 -21.5 t-37 -7.5q-23 0 -44 9t-35 24q-28 28 -28 70q0 20 8.5 38.5t22.5 32.5t33.5 22.5t42.5 8.5zM674 1745q19 0 36 -7.5t31 -20.5q16 -14 25.5 -33.5t9.5 -40.5q0 -20 -8.5 -39t-22.5 -33t-32.5 -22.5t-38.5 -8.5q-25 0 -46.5 9.5t-35.5 26.5q-25 28 -25 67q0 21 9 40t24 33 q14 14 33 21.5t41 7.5z" />
<glyph unicode="&#xd7;" d="M676 631l334 -334l-97 -96l-333 334l-332 -334l-98 100l331 332l-334 334l97 96l334 -334l335 336l101 -98z" />
<glyph unicode="&#xd8;" horiz-adv-x="1679" d="M274 745q0 -113 35 -215q17 -51 42 -97t57 -87l763 881q-74 56 -167 83q-78 23 -164 23q-78 0 -148.5 -19.5t-131.5 -55.5q-81 -48 -142.5 -119.5t-97.5 -160.5q-46 -110 -46 -233zM1403 745q0 111 -35 211q-17 48 -41 92t-55 82l-766 -882q64 -49 140 -77 q45 -17 93.5 -25.5t100.5 -8.5q90 0 167.5 24t142.5 68q66 45 116 106t82 136q55 125 55 274zM291 213q-102 109 -153 254q-23 65 -35.5 134t-12.5 144q0 88 19 170t55 156q50 103 127 185t177 138q82 47 175.5 72t196.5 25q136 0 254 -42q51 -17 97 -42t89 -55l96 112h185 l-177 -202q52 -55 93 -120t67 -138q22 -61 33.5 -125.5t11.5 -133.5q0 -78 -13 -150t-38 -138q-48 -131 -137 -231.5t-210 -163.5q-78 -39 -165.5 -60.5t-185.5 -21.5q-70 0 -135 11t-125 32q-103 37 -185 98l-104 -121h-185z" />
<glyph unicode="&#xd9;" horiz-adv-x="1362" d="M154 1464h172v-960q0 -78 15.5 -136t43.5 -100q41 -62 109 -95q40 -20 86.5 -28t97.5 -8q54 0 103 8.5t91 28.5t74 53t54 81q17 39 26.5 88t9.5 112v956h172v-977q0 -83 -16.5 -151t-48.5 -124q-36 -64 -89.5 -110t-121.5 -75q-56 -24 -119 -35.5t-133 -11.5 q-69 0 -129 9t-112 29q-114 43 -184 130q-49 62 -75 146t-26 193v977zM705 1540l-254 352h176l197 -352h-119z" />
<glyph unicode="&#xda;" horiz-adv-x="1362" d="M154 1464h172v-960q0 -78 15.5 -136t43.5 -100q41 -62 109 -95q40 -20 86.5 -28t97.5 -8q54 0 103 8.5t91 28.5t74 53t54 81q17 39 26.5 88t9.5 112v956h172v-977q0 -83 -16.5 -151t-48.5 -124q-36 -64 -89.5 -110t-121.5 -75q-56 -24 -119 -35.5t-133 -11.5 q-69 0 -129 9t-112 29q-114 43 -184 130q-49 62 -75 146t-26 193v977zM557 1540l197 352h176l-254 -352h-119z" />
<glyph unicode="&#xdb;" horiz-adv-x="1362" d="M154 1464h172v-960q0 -78 15.5 -136t43.5 -100q41 -62 109 -95q40 -20 86.5 -28t97.5 -8q54 0 103 8.5t91 28.5t74 53t54 81q17 39 26.5 88t9.5 112v956h172v-977q0 -83 -16.5 -151t-48.5 -124q-36 -64 -89.5 -110t-121.5 -75q-56 -24 -119 -35.5t-133 -11.5 q-69 0 -129 9t-112 29q-114 43 -184 130q-49 62 -75 146t-26 193v977zM893 1540l-203 223l-203 -223h-119l230 352h184l230 -352h-119z" />
<glyph unicode="&#xdc;" horiz-adv-x="1362" d="M154 1464h172v-960q0 -78 15.5 -136t43.5 -100q41 -62 109 -95q40 -20 86.5 -28t97.5 -8q54 0 103 8.5t91 28.5t74 53t54 81q17 39 26.5 88t9.5 112v956h172v-977q0 -83 -16.5 -151t-48.5 -124q-36 -64 -89.5 -110t-121.5 -75q-56 -24 -119 -35.5t-133 -11.5 q-69 0 -129 9t-112 29q-114 43 -184 130q-49 62 -75 146t-26 193v977zM842 1745q20 0 38.5 -8.5t32.5 -22.5t22.5 -32.5t8.5 -38.5q0 -22 -9 -41t-24 -33q-14 -14 -32 -21.5t-37 -7.5q-23 0 -44 9t-35 24q-28 28 -28 70q0 20 8.5 38.5t22.5 32.5t33.5 22.5t42.5 8.5z M506 1745q19 0 36 -7.5t31 -20.5q16 -14 25.5 -33.5t9.5 -40.5q0 -20 -8.5 -39t-22.5 -33t-32.5 -22.5t-38.5 -8.5q-25 0 -46.5 9.5t-35.5 26.5q-25 28 -25 67q0 21 9 40t24 33q14 14 33 21.5t41 7.5z" />
<glyph unicode="&#xdd;" horiz-adv-x="1174" d="M674 655v-655h-172v655l-486 809h187l387 -657h2l387 657h178zM483 1540l197 352h176l-254 -352h-119z" />
<glyph unicode="&#xde;" horiz-adv-x="1139" d="M326 479q45 -5 81.5 -7.5t71.5 -2.5q131 0 215 36q73 31 113 92q45 70 45 183q0 57 -14 104t-45 82q-44 52 -132 77q-38 11 -84 16.5t-102 5.5q-29 0 -69 -3.5t-80 -8.5v-574zM326 0h-172v1464h172v-241h116q160 0 276 -32q131 -35 208 -109q57 -54 82.5 -124t25.5 -155 q0 -148 -46 -250q-53 -117 -169 -177q-124 -63 -325 -63q-20 0 -63 2t-105 7v-322z" />
<glyph unicode="&#xdf;" horiz-adv-x="1087" d="M543 131q7 -5 17 -9q8 -4 21 -6.5t29 -2.5q54 0 94 16.5t69 48.5q34 37 50.5 92.5t16.5 124.5q0 48 -10 89t-34 81q-28 47 -78 95.5t-128 107.5q-37 28 -57.5 52t-20.5 61q0 11 5 23t13 23.5t17 22t16 19.5q26 30 43.5 56t28 51t14.5 51t4 55q0 32 -10 61t-31.5 51 t-56 34.5t-82.5 12.5q-42 0 -77 -13.5t-59.5 -42.5t-38 -74.5t-13.5 -110.5v-1100h-160v1120q0 78 21 143t61 114q45 54 111.5 84t152.5 30q64 0 120.5 -15.5t101.5 -47.5q51 -37 80.5 -94t29.5 -138q0 -63 -25 -117.5t-67 -103.5q-39 -45 -39 -66q0 -11 5.5 -19t16.5 -16 q12 -8 29 -21.5t35.5 -28.5t37.5 -31t35 -29q46 -38 80.5 -91t56.5 -112q31 -85 31 -162q0 -57 -10.5 -111t-31.5 -102q-23 -52 -58 -93.5t-83 -69.5q-74 -43 -175 -43q-38 0 -72.5 4.5t-60.5 15.5z" />
<glyph unicode="&#xe0;" horiz-adv-x="887" d="M582 444q-39 7 -62 9t-39 2q-72 0 -131 -25q-26 -11 -47 -27t-36 -36q-16 -22 -25 -48t-9 -57q0 -35 8.5 -64t28.5 -49q34 -36 101 -36q64 0 111 23q26 12 50 31t50 46v231zM598 109q-16 -20 -41 -46.5t-67 -47.5q-30 -15 -70 -25t-94 -10q-43 0 -81 13.5t-70 38.5 q-42 32 -67 77q-17 30 -26.5 65t-9.5 72q0 40 8.5 74.5t23.5 64.5q23 45 59 78.5t80 56.5q48 25 100.5 37t105.5 12q29 0 62 -4.5t71 -21.5q0 69 -11 118t-39 78q-44 47 -139 47q-63 0 -110 -16q-29 -10 -55 -26t-50 -37l-57 127q28 20 64.5 37.5t77.5 29.5q33 10 67 15.5 t67 5.5q98 0 163 -22q81 -27 123 -90q31 -46 44.5 -111.5t13.5 -153.5v-305q0 -92 36 -125q24 -23 69 -23v-2q-14 -25 -30 -43.5t-33 -31.5q-38 -29 -78 -29q-38 0 -66 26q-16 15 -26.5 39.5t-12.5 57.5h-2zM428 1112l-254 352h176l197 -352h-119z" />
<glyph unicode="&#xe1;" horiz-adv-x="887" d="M582 444q-39 7 -62 9t-39 2q-72 0 -131 -25q-26 -11 -47 -27t-36 -36q-16 -22 -25 -48t-9 -57q0 -35 8.5 -64t28.5 -49q34 -36 101 -36q64 0 111 23q26 12 50 31t50 46v231zM598 109q-16 -20 -41 -46.5t-67 -47.5q-30 -15 -70 -25t-94 -10q-43 0 -81 13.5t-70 38.5 q-42 32 -67 77q-17 30 -26.5 65t-9.5 72q0 40 8.5 74.5t23.5 64.5q23 45 59 78.5t80 56.5q48 25 100.5 37t105.5 12q29 0 62 -4.5t71 -21.5q0 69 -11 118t-39 78q-44 47 -139 47q-63 0 -110 -16q-29 -10 -55 -26t-50 -37l-57 127q28 20 64.5 37.5t77.5 29.5q33 10 67 15.5 t67 5.5q98 0 163 -22q81 -27 123 -90q31 -46 44.5 -111.5t13.5 -153.5v-305q0 -92 36 -125q24 -23 69 -23v-2q-14 -25 -30 -43.5t-33 -31.5q-38 -29 -78 -29q-38 0 -66 26q-16 15 -26.5 39.5t-12.5 57.5h-2zM352 1112l197 352h176l-254 -352h-119z" />
<glyph unicode="&#xe2;" horiz-adv-x="887" d="M582 444q-39 7 -62 9t-39 2q-72 0 -131 -25q-26 -11 -47 -27t-36 -36q-16 -22 -25 -48t-9 -57q0 -35 8.5 -64t28.5 -49q34 -36 101 -36q64 0 111 23q26 12 50 31t50 46v231zM598 109q-16 -20 -41 -46.5t-67 -47.5q-30 -15 -70 -25t-94 -10q-43 0 -81 13.5t-70 38.5 q-42 32 -67 77q-17 30 -26.5 65t-9.5 72q0 40 8.5 74.5t23.5 64.5q23 45 59 78.5t80 56.5q48 25 100.5 37t105.5 12q29 0 62 -4.5t71 -21.5q0 69 -11 118t-39 78q-44 47 -139 47q-63 0 -110 -16q-29 -10 -55 -26t-50 -37l-57 127q28 20 64.5 37.5t77.5 29.5q33 10 67 15.5 t67 5.5q98 0 163 -22q81 -27 123 -90q31 -46 44.5 -111.5t13.5 -153.5v-305q0 -92 36 -125q24 -23 69 -23v-2q-14 -25 -30 -43.5t-33 -31.5q-38 -29 -78 -29q-38 0 -66 26q-16 15 -26.5 39.5t-12.5 57.5h-2zM649 1112l-203 223l-203 -223h-119l230 352h184l230 -352h-119z " />
<glyph unicode="&#xe3;" horiz-adv-x="887" d="M582 444q-39 7 -62 9t-39 2q-72 0 -131 -25q-26 -11 -47 -27t-36 -36q-16 -22 -25 -48t-9 -57q0 -35 8.5 -64t28.5 -49q34 -36 101 -36q64 0 111 23q26 12 50 31t50 46v231zM598 109q-16 -20 -41 -46.5t-67 -47.5q-30 -15 -70 -25t-94 -10q-43 0 -81 13.5t-70 38.5 q-42 32 -67 77q-17 30 -26.5 65t-9.5 72q0 40 8.5 74.5t23.5 64.5q23 45 59 78.5t80 56.5q48 25 100.5 37t105.5 12q29 0 62 -4.5t71 -21.5q0 69 -11 118t-39 78q-44 47 -139 47q-63 0 -110 -16q-29 -10 -55 -26t-50 -37l-57 127q28 20 64.5 37.5t77.5 29.5q33 10 67 15.5 t67 5.5q98 0 163 -22q81 -27 123 -90q31 -46 44.5 -111.5t13.5 -153.5v-305q0 -92 36 -125q24 -23 69 -23v-2q-14 -25 -30 -43.5t-33 -31.5q-38 -29 -78 -29q-38 0 -66 26q-16 15 -26.5 39.5t-12.5 57.5h-2zM746 1407q-29 -116 -84 -167q-45 -42 -109 -42q-40 0 -73.5 12 t-62.5 27t-55.5 27t-51.5 12q-71 0 -109 -78h-90q5 39 22.5 79.5t45.5 72.5q23 26 51.5 41.5t62.5 15.5q51 0 86 -12t62.5 -27t52.5 -27t55 -12q42 0 68.5 20t40.5 58h88z" />
<glyph unicode="&#xe4;" horiz-adv-x="887" d="M582 444q-39 7 -62 9t-39 2q-72 0 -131 -25q-26 -11 -47 -27t-36 -36q-16 -22 -25 -48t-9 -57q0 -35 8.5 -64t28.5 -49q34 -36 101 -36q64 0 111 23q26 12 50 31t50 46v231zM598 109q-16 -20 -41 -46.5t-67 -47.5q-30 -15 -70 -25t-94 -10q-43 0 -81 13.5t-70 38.5 q-42 32 -67 77q-17 30 -26.5 65t-9.5 72q0 40 8.5 74.5t23.5 64.5q23 45 59 78.5t80 56.5q48 25 100.5 37t105.5 12q29 0 62 -4.5t71 -21.5q0 69 -11 118t-39 78q-44 47 -139 47q-63 0 -110 -16q-29 -10 -55 -26t-50 -37l-57 127q28 20 64.5 37.5t77.5 29.5q33 10 67 15.5 t67 5.5q98 0 163 -22q81 -27 123 -90q31 -46 44.5 -111.5t13.5 -153.5v-305q0 -92 36 -125q24 -23 69 -23v-2q-14 -25 -30 -43.5t-33 -31.5q-38 -29 -78 -29q-38 0 -66 26q-16 15 -26.5 39.5t-12.5 57.5h-2zM599 1419q20 0 38.5 -8.5t32.5 -22.5t22.5 -32.5t8.5 -38.5 q0 -22 -9 -41t-24 -33q-14 -14 -32 -21.5t-37 -7.5q-23 0 -44 9t-35 24q-28 28 -28 70q0 20 8.5 38.5t22.5 32.5t33.5 22.5t42.5 8.5zM263 1419q19 0 36 -7.5t31 -20.5q16 -14 25.5 -33.5t9.5 -40.5q0 -20 -8.5 -39t-22.5 -33t-32.5 -22.5t-38.5 -8.5q-25 0 -46.5 9.5 t-35.5 26.5q-25 28 -25 67q0 21 9 40t24 33q14 14 33 21.5t41 7.5z" />
<glyph unicode="&#xe5;" horiz-adv-x="887" d="M582 444q-39 7 -62 9t-39 2q-72 0 -131 -25q-26 -11 -47 -27t-36 -36q-16 -22 -25 -48t-9 -57q0 -35 8.5 -64t28.5 -49q34 -36 101 -36q64 0 111 23q26 12 50 31t50 46v231zM598 109q-16 -20 -41 -46.5t-67 -47.5q-30 -15 -70 -25t-94 -10q-43 0 -81 13.5t-70 38.5 q-42 32 -67 77q-17 30 -26.5 65t-9.5 72q0 40 8.5 74.5t23.5 64.5q23 45 59 78.5t80 56.5q48 25 100.5 37t105.5 12q29 0 62 -4.5t71 -21.5q0 69 -11 118t-39 78q-44 47 -139 47q-63 0 -110 -16q-29 -10 -55 -26t-50 -37l-57 127q28 20 64.5 37.5t77.5 29.5q33 10 67 15.5 t67 5.5q98 0 163 -22q81 -27 123 -90q31 -46 44.5 -111.5t13.5 -153.5v-305q0 -92 36 -125q24 -23 69 -23v-2q-14 -25 -30 -43.5t-33 -31.5q-38 -29 -78 -29q-38 0 -66 26q-16 15 -26.5 39.5t-12.5 57.5h-2zM428 1511q42 0 79.5 -16t66.5 -43q30 -29 47.5 -67t17.5 -82 q0 -43 -15.5 -80.5t-43.5 -66.5q-29 -29 -68 -46.5t-84 -17.5q-42 0 -79.5 15.5t-66.5 42.5q-30 29 -47.5 68.5t-17.5 84.5q0 47 20 87.5t54 69.5q28 24 63 37.5t74 13.5zM428 1202q20 0 37 7t31 19q15 14 24 33t9 42q0 41 -28 69q-29 29 -73 29q-22 0 -41 -8.5t-33 -22.5 q-13 -13 -20.5 -30t-7.5 -37q0 -41 29 -70q14 -14 33 -22.5t40 -8.5z" />
<glyph unicode="&#xe6;" horiz-adv-x="1444" d="M985 786q-52 0 -95.5 -19t-75.5 -53q-31 -32 -49 -76t-20 -95h457q0 125 -65 188q-57 55 -152 55zM582 449q-39 6 -62 8t-39 2q-66 0 -120.5 -23.5t-88.5 -65.5q-20 -25 -31.5 -55t-11.5 -65q0 -74 33 -108q35 -36 109 -36q33 0 60.5 7t52.5 20.5t49 33.5t49 46v236z M741 434v-41q5 -61 25 -113.5t55 -90.5q33 -37 79 -57.5t106 -20.5q37 0 67 5.5t55 15.5t47 24t42 30l57 -110q-32 -26 -69 -44.5t-78 -30.5q-73 -21 -152 -21q-48 0 -92.5 10t-85.5 30q-42 20 -76 50.5t-59 72.5q-25 -36 -55.5 -65.5t-69.5 -50.5q-42 -23 -93.5 -35 t-117.5 -12q-57 0 -106 24t-84 66q-30 35 -47 80t-17 96q0 89 42 157q23 37 55.5 66t70.5 49q48 26 102 38.5t107 12.5q46 0 77 -7t56 -19q0 69 -11 118t-39 78q-44 47 -139 47q-73 0 -130 -23q-48 -19 -85 -56l-57 127q26 19 59.5 35.5t71.5 28.5q35 11 72 17.5t73 6.5 q118 0 190 -34q69 -32 105 -97q16 19 44.5 44.5t70.5 47.5q34 17 76 28t94 11q99 0 173 -31q84 -34 135 -101q35 -45 55 -108q11 -34 16.5 -71t5.5 -79q0 -23 -3.5 -49t-8.5 -49h-609z" />
<glyph unicode="&#xe7;" horiz-adv-x="872" d="M80 440q0 114 40 212q29 71 77 127t114 91q47 25 100.5 38.5t114.5 13.5q44 0 87.5 -7.5t84.5 -21.5q71 -24 123 -64l-78 -112q-17 15 -41 27t-52 21q-30 10 -60.5 15.5t-54.5 5.5q-72 0 -123.5 -26.5t-86.5 -71.5q-39 -50 -57 -115t-18 -133q0 -65 14.5 -117.5 t41.5 -94.5q36 -54 93 -83.5t133 -29.5q57 0 118 20.5t114 61.5l63 -136q-30 -19 -66 -33t-75 -25q-89 -23 -182 -23q-67 0 -124 15.5t-104 44.5q-57 35 -98 87t-65 117q-33 89 -33 196zM370 -311q44 0 79.5 5t60.5 17q41 20 41 60q0 37 -21.5 59.5t-66.5 22.5v98 q43 0 79 -13t61 -40q21 -22 32.5 -53.5t11.5 -73.5q0 -50 -19.5 -85t-55.5 -57q-64 -39 -179 -39z" />
<glyph unicode="&#xe8;" horiz-adv-x="952" d="M494 786q-51 0 -94 -18.5t-74.5 -51t-49.5 -77t-20 -96.5h455q0 117 -57.5 180t-159.5 63zM250 434q0 -29 3.5 -56t9.5 -53q13 -51 37 -91.5t60 -68.5q31 -24 69 -37t85 -13q37 0 66.5 5.5t55.5 15.5t47.5 24t41.5 30l57 -114q-59 -47 -134 -71q-39 -13 -80.5 -19 t-84.5 -6q-63 0 -116.5 16t-98.5 45q-51 34 -89 83t-62 109q-18 47 -27.5 98t-9.5 107q0 119 41 222q23 57 56.5 104t78.5 82q47 36 103.5 56t125.5 20q110 0 194 -41q104 -51 153 -158q38 -82 38 -191q0 -23 -3.5 -49t-8.5 -49h-608zM510 1112l-254 352h176l197 -352h-119z " />
<glyph unicode="&#xe9;" horiz-adv-x="952" d="M494 786q-51 0 -94 -18.5t-74.5 -51t-49.5 -77t-20 -96.5h455q0 117 -57.5 180t-159.5 63zM250 434q0 -29 3.5 -56t9.5 -53q13 -51 37 -91.5t60 -68.5q31 -24 69 -37t85 -13q37 0 66.5 5.5t55.5 15.5t47.5 24t41.5 30l57 -114q-59 -47 -134 -71q-39 -13 -80.5 -19 t-84.5 -6q-63 0 -116.5 16t-98.5 45q-51 34 -89 83t-62 109q-18 47 -27.5 98t-9.5 107q0 119 41 222q23 57 56.5 104t78.5 82q47 36 103.5 56t125.5 20q110 0 194 -41q104 -51 153 -158q38 -82 38 -191q0 -23 -3.5 -49t-8.5 -49h-608zM424 1112l197 352h176l-254 -352h-119z " />
<glyph unicode="&#xea;" horiz-adv-x="952" d="M494 786q-51 0 -94 -18.5t-74.5 -51t-49.5 -77t-20 -96.5h455q0 117 -57.5 180t-159.5 63zM250 434q0 -29 3.5 -56t9.5 -53q13 -51 37 -91.5t60 -68.5q31 -24 69 -37t85 -13q37 0 66.5 5.5t55.5 15.5t47.5 24t41.5 30l57 -114q-59 -47 -134 -71q-39 -13 -80.5 -19 t-84.5 -6q-63 0 -116.5 16t-98.5 45q-51 34 -89 83t-62 109q-18 47 -27.5 98t-9.5 107q0 119 41 222q23 57 56.5 104t78.5 82q47 36 103.5 56t125.5 20q110 0 194 -41q104 -51 153 -158q38 -82 38 -191q0 -23 -3.5 -49t-8.5 -49h-608zM707 1112l-203 223l-203 -223h-119 l230 352h184l230 -352h-119z" />
<glyph unicode="&#xeb;" horiz-adv-x="952" d="M494 786q-51 0 -94 -18.5t-74.5 -51t-49.5 -77t-20 -96.5h455q0 117 -57.5 180t-159.5 63zM250 434q0 -29 3.5 -56t9.5 -53q13 -51 37 -91.5t60 -68.5q31 -24 69 -37t85 -13q37 0 66.5 5.5t55.5 15.5t47.5 24t41.5 30l57 -114q-59 -47 -134 -71q-39 -13 -80.5 -19 t-84.5 -6q-63 0 -116.5 16t-98.5 45q-51 34 -89 83t-62 109q-18 47 -27.5 98t-9.5 107q0 119 41 222q23 57 56.5 104t78.5 82q47 36 103.5 56t125.5 20q110 0 194 -41q104 -51 153 -158q38 -82 38 -191q0 -23 -3.5 -49t-8.5 -49h-608zM668 1419q20 0 38.5 -8.5t32.5 -22.5 t22.5 -32.5t8.5 -38.5q0 -22 -9 -41t-24 -33q-14 -14 -32 -21.5t-37 -7.5q-23 0 -44 9t-35 24q-28 28 -28 70q0 20 8.5 38.5t22.5 32.5t33.5 22.5t42.5 8.5zM332 1419q19 0 36 -7.5t31 -20.5q16 -14 25.5 -33.5t9.5 -40.5q0 -20 -8.5 -39t-22.5 -33t-32.5 -22.5t-38.5 -8.5 q-25 0 -46.5 9.5t-35.5 26.5q-25 28 -25 67q0 21 9 40t24 33q14 14 33 21.5t41 7.5z" />
<glyph unicode="&#xec;" horiz-adv-x="471" d="M160 0v774h-80v127h237v-901h-157zM256 1112l-254 352h176l197 -352h-119z" />
<glyph unicode="&#xed;" horiz-adv-x="471" d="M160 0v774h-80v127h237v-901h-157zM104 1112l197 352h176l-254 -352h-119z" />
<glyph unicode="&#xee;" horiz-adv-x="471" d="M160 0v774h-80v127h237v-901h-157zM444 1112l-203 223l-203 -223h-119l230 352h184l230 -352h-119z" />
<glyph unicode="&#xef;" horiz-adv-x="471" d="M160 0v774h-80v127h237v-901h-157zM407 1419q20 0 38.5 -8.5t32.5 -22.5t22.5 -32.5t8.5 -38.5q0 -22 -9 -41t-24 -33q-14 -14 -32 -21.5t-37 -7.5q-23 0 -44 9t-35 24q-28 28 -28 70q0 20 8.5 38.5t22.5 32.5t33.5 22.5t42.5 8.5zM71 1419q19 0 36 -7.5t31 -20.5 q16 -14 25.5 -33.5t9.5 -40.5q0 -20 -8.5 -39t-22.5 -33t-32.5 -22.5t-38.5 -8.5q-25 0 -46.5 9.5t-35.5 26.5q-25 28 -25 67q0 21 9 40t24 33q14 14 33 21.5t41 7.5z" />
<glyph unicode="&#xf0;" horiz-adv-x="983" d="M248 451q0 -106 28 -185q31 -86 93 -126q53 -34 123 -34q67 0 118 31q70 42 102 140q12 37 17.5 80t5.5 94q0 97 -22 166q-24 77 -73 123q-60 55 -148 55t-145 -48q-29 -24 -49 -59t-32 -81q-18 -67 -18 -156zM88 451q0 62 10.5 119.5t31.5 108.5t51 92.5t71 73.5 q48 37 108 57t132 20q46 0 78.5 -7.5t66.5 -19.5h6q-19 41 -44.5 87t-54 91.5t-58.5 87.5t-58 76l-174 -92l-41 65l166 88h2q-40 50 -81 90.5t-83 75.5h211q19 -18 38.5 -40t45.5 -54l172 92l39 -67l-162 -86h-2q69 -97 136 -204.5t117 -232.5q38 -95 60.5 -199.5 t22.5 -221.5q0 -72 -14 -137t-42 -121q-23 -45 -53.5 -82t-70.5 -65q-45 -32 -100.5 -49t-122.5 -17q-100 0 -180 40q-54 26 -94.5 68t-69.5 97q-29 57 -44.5 124t-15.5 142z" />
<glyph unicode="&#xf1;" horiz-adv-x="963" d="M690 0v571q0 68 -22 116.5t-73 74.5q-23 11 -52.5 17.5t-67.5 6.5q-27 0 -54 -9t-52 -25q-55 -35 -95 -95v-657h-161v901h110l43 -115h8q29 37 57 63t60 43q29 15 62 22.5t75 7.5q90 0 157 -33q68 -33 110 -98q26 -42 40.5 -95.5t14.5 -120.5v-575h-160zM799 1407 q-29 -116 -84 -167q-45 -42 -109 -42q-40 0 -73.5 12t-62.5 27t-55.5 27t-51.5 12q-71 0 -109 -78h-90q5 39 22.5 79.5t45.5 72.5q23 26 51.5 41.5t62.5 15.5q51 0 86 -12t62.5 -27t52.5 -27t55 -12q42 0 68.5 20t40.5 58h88z" />
<glyph unicode="&#xf2;" horiz-adv-x="983" d="M250 451q0 -142 49 -228q31 -53 79.5 -80.5t115.5 -27.5q111 0 171 75q35 43 51.5 108t16.5 153q0 158 -59 244q-62 91 -180 91q-121 0 -183 -86q-61 -85 -61 -249zM80 451q0 60 11 115t31 105q20 49 49.5 90t67.5 73q50 42 113.5 65t141.5 23q55 0 101.5 -11.5 t87.5 -32.5q48 -26 86 -64t65 -86q35 -60 52 -130.5t17 -146.5q0 -75 -16 -143.5t-48 -126.5q-49 -89 -129 -141q-45 -29 -98.5 -44.5t-117.5 -15.5q-66 0 -122 16.5t-103 48.5q-46 31 -81 73.5t-59 95.5q-49 106 -49 237zM526 1112l-254 352h176l197 -352h-119z" />
<glyph unicode="&#xf3;" horiz-adv-x="983" d="M249 451q0 -142 49 -228q31 -53 79.5 -80.5t115.5 -27.5q111 0 171 75q35 43 51.5 108t16.5 153q0 158 -59 244q-62 91 -180 91q-121 0 -183 -86q-61 -85 -61 -249zM79 451q0 60 11 115t31 105q20 49 49.5 90t67.5 73q50 42 113.5 65t141.5 23q55 0 101.5 -11.5 t87.5 -32.5q48 -26 86 -64t65 -86q35 -60 52 -130.5t17 -146.5q0 -75 -16 -143.5t-48 -126.5q-49 -89 -129 -141q-45 -29 -98.5 -44.5t-117.5 -15.5q-66 0 -122 16.5t-103 48.5q-46 31 -81 73.5t-59 95.5q-49 106 -49 237zM377 1112l197 352h176l-254 -352h-119z" />
<glyph unicode="&#xf4;" horiz-adv-x="983" d="M249 451q0 -142 49 -228q31 -53 79.5 -80.5t115.5 -27.5q111 0 171 75q35 43 51.5 108t16.5 153q0 158 -59 244q-62 91 -180 91q-121 0 -183 -86q-61 -85 -61 -249zM79 451q0 60 11 115t31 105q20 49 49.5 90t67.5 73q50 42 113.5 65t141.5 23q55 0 101.5 -11.5 t87.5 -32.5q48 -26 86 -64t65 -86q35 -60 52 -130.5t17 -146.5q0 -75 -16 -143.5t-48 -126.5q-49 -89 -129 -141q-45 -29 -98.5 -44.5t-117.5 -15.5q-66 0 -122 16.5t-103 48.5q-46 31 -81 73.5t-59 95.5q-49 106 -49 237zM697 1112l-203 223l-203 -223h-119l230 352h184 l230 -352h-119z" />
<glyph unicode="&#xf5;" horiz-adv-x="983" d="M249 451q0 -142 49 -228q31 -53 79.5 -80.5t115.5 -27.5q111 0 171 75q35 43 51.5 108t16.5 153q0 158 -59 244q-62 91 -180 91q-121 0 -183 -86q-61 -85 -61 -249zM79 451q0 60 11 115t31 105q20 49 49.5 90t67.5 73q50 42 113.5 65t141.5 23q55 0 101.5 -11.5 t87.5 -32.5q48 -26 86 -64t65 -86q35 -60 52 -130.5t17 -146.5q0 -75 -16 -143.5t-48 -126.5q-49 -89 -129 -141q-45 -29 -98.5 -44.5t-117.5 -15.5q-66 0 -122 16.5t-103 48.5q-46 31 -81 73.5t-59 95.5q-49 106 -49 237zM803 1407q-29 -116 -84 -167q-45 -42 -109 -42 q-40 0 -73.5 12t-62.5 27t-55.5 27t-51.5 12q-71 0 -109 -78h-90q5 39 22.5 79.5t45.5 72.5q23 26 51.5 41.5t62.5 15.5q51 0 86 -12t62.5 -27t52.5 -27t55 -12q42 0 68.5 20t40.5 58h88z" />
<glyph unicode="&#xf6;" horiz-adv-x="983" d="M249 451q0 -142 49 -228q31 -53 79.5 -80.5t115.5 -27.5q111 0 171 75q35 43 51.5 108t16.5 153q0 158 -59 244q-62 91 -180 91q-121 0 -183 -86q-61 -85 -61 -249zM79 451q0 60 11 115t31 105q20 49 49.5 90t67.5 73q50 42 113.5 65t141.5 23q55 0 101.5 -11.5 t87.5 -32.5q48 -26 86 -64t65 -86q35 -60 52 -130.5t17 -146.5q0 -75 -16 -143.5t-48 -126.5q-49 -89 -129 -141q-45 -29 -98.5 -44.5t-117.5 -15.5q-66 0 -122 16.5t-103 48.5q-46 31 -81 73.5t-59 95.5q-49 106 -49 237zM654 1419q20 0 38.5 -8.5t32.5 -22.5t22.5 -32.5 t8.5 -38.5q0 -22 -9 -41t-24 -33q-14 -14 -32 -21.5t-37 -7.5q-23 0 -44 9t-35 24q-28 28 -28 70q0 20 8.5 38.5t22.5 32.5t33.5 22.5t42.5 8.5zM318 1419q19 0 36 -7.5t31 -20.5q16 -14 25.5 -33.5t9.5 -40.5q0 -20 -8.5 -39t-22.5 -33t-32.5 -22.5t-38.5 -8.5 q-25 0 -46.5 9.5t-35.5 26.5q-25 28 -25 67q0 21 9 40t24 33q14 14 33 21.5t41 7.5z" />
<glyph unicode="&#xf7;" d="M580 1053q46 0 76 -32q28 -30 28 -73q0 -23 -10 -44t-27 -35q-28 -25 -67 -25q-22 0 -41 7.5t-33 21.5q-15 14 -24 33.5t-9 41.5q0 43 28 73q30 32 79 32zM580 422q47 0 77 -33q27 -29 27 -72q0 -48 -35 -78q-14 -12 -31.5 -19t-37.5 -7q-22 0 -41 7.5t-33 21.5 q-15 14 -24 33.5t-9 41.5q0 24 9 44t25 34q30 27 73 27zM1012 700v-135h-867v135h867z" />
<glyph unicode="&#xf8;" horiz-adv-x="983" d="M735 451q0 57 -8.5 106.5t-24.5 87.5l-360 -485q29 -26 66 -40t84 -14q58 0 101.5 21.5t74.5 62.5q67 91 67 261zM248 451q0 -59 8 -109t25 -90l358 487q-59 56 -147 56q-117 0 -180 -87q-64 -90 -64 -257zM186 125q-52 67 -76 154q-22 78 -22 172q0 107 32 200 q21 60 55 110t82 86q47 35 105.5 55t129.5 20q69 0 126.5 -19t102.5 -53l53 72l117 -21l-94 -127q54 -71 78 -166q20 -77 20 -157q0 -107 -32 -200q-26 -73 -70 -131t-108 -93q-41 -23 -89 -35t-104 -12q-38 0 -72.5 5.5t-66.5 16.5q-47 16 -91 47l-51 -69l-117 20z" />
<glyph unicode="&#xf9;" horiz-adv-x="963" d="M272 901v-567q0 -61 8 -104.5t30 -69.5q18 -22 47.5 -32.5t74.5 -10.5q34 0 71 10t71 27q40 20 71 50t45 68v629h160v-901h-123l-35 102h-2q-19 -28 -49.5 -50.5t-69.5 -38.5q-38 -16 -83 -24.5t-95 -8.5q-95 0 -160 40q-52 33 -80 90q-40 77 -40 197v594h159zM512 1112 l-254 352h176l197 -352h-119z" />
<glyph unicode="&#xfa;" horiz-adv-x="963" d="M272 901v-567q0 -61 8 -104.5t30 -69.5q18 -22 47.5 -32.5t74.5 -10.5q34 0 71 10t71 27q40 20 71 50t45 68v629h160v-901h-123l-35 102h-2q-19 -28 -49.5 -50.5t-69.5 -38.5q-38 -16 -83 -24.5t-95 -8.5q-95 0 -160 40q-52 33 -80 90q-40 77 -40 197v594h159zM383 1112 l197 352h176l-254 -352h-119z" />
<glyph unicode="&#xfb;" horiz-adv-x="963" d="M272 901v-567q0 -61 8 -104.5t30 -69.5q18 -22 47.5 -32.5t74.5 -10.5q34 0 71 10t71 27q40 20 71 50t45 68v629h160v-901h-123l-35 102h-2q-19 -28 -49.5 -50.5t-69.5 -38.5q-38 -16 -83 -24.5t-95 -8.5q-95 0 -160 40q-52 33 -80 90q-40 77 -40 197v594h159zM670 1112 l-203 223l-203 -223h-119l230 352h184l230 -352h-119z" />
<glyph unicode="&#xfc;" horiz-adv-x="963" d="M272 901v-567q0 -61 8 -104.5t30 -69.5q18 -22 47.5 -32.5t74.5 -10.5q34 0 71 10t71 27q40 20 71 50t45 68v629h160v-901h-123l-35 102h-2q-19 -28 -49.5 -50.5t-69.5 -38.5q-38 -16 -83 -24.5t-95 -8.5q-95 0 -160 40q-52 33 -80 90q-40 77 -40 197v594h159zM650 1419 q20 0 38.5 -8.5t32.5 -22.5t22.5 -32.5t8.5 -38.5q0 -22 -9 -41t-24 -33q-14 -14 -32 -21.5t-37 -7.5q-23 0 -44 9t-35 24q-28 28 -28 70q0 20 8.5 38.5t22.5 32.5t33.5 22.5t42.5 8.5zM314 1419q19 0 36 -7.5t31 -20.5q16 -14 25.5 -33.5t9.5 -40.5q0 -20 -8.5 -39 t-22.5 -33t-32.5 -22.5t-38.5 -8.5q-25 0 -46.5 9.5t-35.5 26.5q-25 28 -25 67q0 21 9 40t24 33q14 14 33 21.5t41 7.5z" />
<glyph unicode="&#xfd;" horiz-adv-x="952" d="M510 -201q-15 -41 -45 -76t-72 -63q-49 -33 -108.5 -51.5t-120.5 -18.5v140q54 0 102.5 16t81.5 47q24 22 37.5 51t13.5 64q0 25 -5 61.5t-23 85.5l-320 846h160l278 -735h3q30 88 61.5 180.5t64.5 186t66 186.5t64 182h153zM383 1112l197 352h176l-254 -352h-119z" />
<glyph unicode="&#xfe;" horiz-adv-x="993" d="M272 182q12 -16 32.5 -29t44 -22.5t48 -14.5t43.5 -5q91 0 152 26q56 24 91 72q62 84 62 250q0 89 -19 150q-25 83 -84 128q-64 49 -167 49q-34 0 -65.5 -6.5t-58.5 -17.5t-47.5 -25.5t-31.5 -31.5v-523zM905 453q0 -148 -54 -259q-23 -45 -53.5 -82t-71.5 -65 q-48 -32 -107.5 -49.5t-131.5 -17.5q-22 0 -54 6.5t-64 19.5q-29 11 -54.5 27t-42.5 37v-460h-159v1854h159v-653q50 53 101 82t116 29q106 0 188 -37q47 -21 83 -52.5t64 -72.5q41 -60 61 -138t20 -169z" />
<glyph unicode="&#xff;" horiz-adv-x="952" d="M510 -201q-15 -41 -45 -76t-72 -63q-49 -33 -108.5 -51.5t-120.5 -18.5v140q54 0 102.5 16t81.5 47q24 22 37.5 51t13.5 64q0 25 -5 61.5t-23 85.5l-320 846h160l278 -735h3q30 88 61.5 180.5t64.5 186t66 186.5t64 182h153zM656 1419q20 0 38.5 -8.5t32.5 -22.5 t22.5 -32.5t8.5 -38.5q0 -22 -9 -41t-24 -33q-14 -14 -32 -21.5t-37 -7.5q-23 0 -44 9t-35 24q-28 28 -28 70q0 20 8.5 38.5t22.5 32.5t33.5 22.5t42.5 8.5zM320 1419q19 0 36 -7.5t31 -20.5q16 -14 25.5 -33.5t9.5 -40.5q0 -20 -8.5 -39t-22.5 -33t-32.5 -22.5t-38.5 -8.5 q-25 0 -46.5 9.5t-35.5 26.5q-25 28 -25 67q0 21 9 40t24 33q14 14 33 21.5t41 7.5z" />
<glyph unicode="&#x131;" horiz-adv-x="471" d="M160 0v774h-80v127h237v-901h-157z" />
<glyph unicode="&#x141;" horiz-adv-x="1034" d="M2 705l152 98v661h172v-538l200 127v-144l-200 -129v-622h678v-158h-850v657l-152 -96v144z" />
<glyph unicode="&#x142;" horiz-adv-x="422" d="M-23 702l144 97v665h160v-557l176 119v-143l-176 -119v-553q0 -59 28 -89t76 -30v-2q-25 -55 -59 -83q-18 -14 -38 -20.5t-40 -6.5q-46 0 -77 28q-25 23 -37.5 62.5t-12.5 93.5v493l-144 -96v141z" />
<glyph unicode="&#x152;" horiz-adv-x="2019" d="M274 745q0 -124 41 -233q30 -81 79.5 -148.5t115.5 -117.5q69 -52 152 -80.5t178 -28.5q57 0 109 10.5t100 28.5v1118q-48 19 -100 29t-109 10q-88 0 -166 -24.5t-144 -69.5q-72 -48 -125.5 -115.5t-86.5 -148.5q-44 -108 -44 -230zM1221 1307v-439h495v-147h-495v-563 h680v-158h-852q-50 -9 -102.5 -14.5t-106.5 -5.5q-123 0 -230.5 33.5t-197.5 94.5q-79 54 -140.5 126t-103.5 160q-38 79 -58 167t-20 184q0 91 21 176.5t59 161.5q52 102 131.5 183.5t180.5 135.5q80 43 169.5 66t188.5 23q54 0 106.5 -6.5t102.5 -20.5h862v-157h-690z" />
<glyph unicode="&#x153;" horiz-adv-x="1589" d="M1139 786q-49 0 -92.5 -17t-76.5 -48q-35 -33 -56 -78.5t-23 -99.5h465q0 115 -57 178q-57 65 -160 65zM248 451q0 -139 45 -225q30 -58 80 -89t119 -31q66 0 113.5 27.5t77.5 78.5q52 88 52 239q0 178 -75 268q-62 76 -168 76q-66 0 -113.5 -27t-78.5 -78 q-26 -44 -39 -104t-13 -135zM895 434v-24q3 -60 19.5 -111t45.5 -91q34 -45 83.5 -71t115.5 -26q74 0 122.5 21.5t88.5 53.5l57 -110q-28 -23 -60.5 -40t-68.5 -29q-40 -14 -83 -20.5t-87 -6.5q-51 0 -96 10.5t-84 30.5q-42 21 -76.5 52t-60.5 70q-48 -71 -118 -112 q-42 -25 -92 -38t-109 -13q-50 0 -93.5 10t-81.5 28q-48 23 -85.5 58t-66.5 80q-38 60 -57.5 134.5t-19.5 160.5q0 107 32 200q18 52 45.5 96t65.5 79q50 45 115 70.5t146 25.5q60 0 110 -14t92 -39q38 -23 68 -53t53 -66q25 37 56 67.5t69 53.5q41 24 88 37.5t102 13.5 q54 0 101 -10t88 -29q86 -41 136 -119q61 -95 61 -232q0 -23 -4 -49t-9 -49h-608z" />
<glyph unicode="&#x160;" horiz-adv-x="1024" d="M174 225q23 -18 53 -33t64 -26q43 -14 87.5 -21.5t82.5 -7.5q63 0 117 18.5t92 53.5q32 29 49.5 70.5t17.5 93.5q0 43 -6.5 76t-22.5 60q-22 39 -64 70t-112 66q-13 7 -33.5 18t-42 23t-42 23t-35.5 18q-73 36 -125.5 76.5t-84.5 92.5q-28 45 -41 98.5t-13 121.5 q0 52 13 98t37 86q26 44 64 78.5t85 59.5q48 26 103 39.5t115 13.5q58 0 109.5 -7.5t95.5 -18.5q40 -11 71 -22t52 -22l-55 -161q-51 33 -129 54q-32 9 -67.5 14t-71.5 5q-56 0 -103 -15.5t-80 -49.5q-27 -28 -42 -68t-15 -94q0 -35 10.5 -64.5t28.5 -55.5q18 -25 42 -45 t52 -36q51 -29 109 -60t116 -63q76 -42 129.5 -85t86.5 -99q26 -44 38.5 -97t12.5 -122q0 -51 -11.5 -95.5t-31.5 -82.5q-26 -49 -66 -87t-90 -66q-61 -34 -133 -51t-148 -17q-48 0 -96 6.5t-93 18.5q-81 21 -142 61zM852 1890l-230 -352h-184l-230 352h119l203 -223 l203 223h119z" />
<glyph unicode="&#x161;" horiz-adv-x="727" d="M691 1464l-230 -352h-184l-230 352h119l203 -223l203 223h119zM125 201q33 -22 63.5 -38t59.5 -27q52 -19 98 -19q74 0 113 41q17 17 25 38.5t8 45.5q0 40 -31 68.5t-80 54.5q-45 24 -87.5 50.5t-74.5 45.5q-35 20 -60.5 43.5t-42.5 49.5q-21 32 -30.5 65.5t-9.5 66.5 q0 59 23 103q14 29 36.5 51.5t51.5 39.5q38 22 83.5 32t94.5 10q38 0 99 -11q38 -8 78.5 -20t78.5 -31l-48 -151q-23 17 -45.5 30.5t-46.5 24.5q-23 10 -47.5 16t-50.5 6q-29 0 -54 -7t-44 -20q-18 -13 -28.5 -30t-10.5 -37q0 -21 4 -36.5t14 -29t27 -26t43 -27.5 q32 -18 66.5 -35.5t66.5 -35.5q57 -32 97 -62.5t63 -66.5q35 -52 35 -133q0 -67 -26 -117q-20 -38 -52 -65.5t-74 -45.5q-38 -17 -83 -24.5t-95 -7.5q-36 0 -71 5.5t-70 15.5q-65 20 -121 50z" />
<glyph unicode="&#x178;" horiz-adv-x="1174" d="M674 655v-655h-172v655l-486 809h187l387 -657h2l387 657h178zM754 1745q20 0 38.5 -8.5t32.5 -22.5t22.5 -32.5t8.5 -38.5q0 -22 -9 -41t-24 -33q-14 -14 -32 -21.5t-37 -7.5q-23 0 -44 9t-35 24q-28 28 -28 70q0 20 8.5 38.5t22.5 32.5t33.5 22.5t42.5 8.5zM418 1745 q19 0 36 -7.5t31 -20.5q16 -14 25.5 -33.5t9.5 -40.5q0 -20 -8.5 -39t-22.5 -33t-32.5 -22.5t-38.5 -8.5q-25 0 -46.5 9.5t-35.5 26.5q-25 28 -25 67q0 21 9 40t24 33q14 14 33 21.5t41 7.5z" />
<glyph unicode="&#x17d;" horiz-adv-x="1214" d="M129 0v35l678 1272h-668v157h922v-34l-682 -1272h704v-158h-954zM945 1892l-230 -352h-184l-230 352h119l203 -223l203 223h119z" />
<glyph unicode="&#x17e;" horiz-adv-x="831" d="M280 145h498v-145h-744v41l502 715h-492v145h729v-45zM734 1464l-230 -352h-184l-230 352h119l203 -223l203 223h119z" />
<glyph unicode="&#x192;" horiz-adv-x="795" d="M741 1335q-32 13 -56.5 18t-43.5 5q-64 0 -110 -44q-46 -45 -72 -140q-1 -5 -5 -25.5t-9 -49t-11.5 -61t-11.5 -61.5t-9 -50t-5 -26h210l-14 -106h-213l-139 -854q-7 -44 -24 -81t-43 -68q-40 -50 -100 -84q-74 -41 -161 -52l-16 98q31 5 62.5 22.5t57.5 48.5 q19 23 32.5 52t19.5 64l145 854h-129l21 106h123q2 7 6 30t10 53t12.5 64t13 64t11 52t6.5 28q14 72 43 125t72 89q47 40 105 59q30 11 63.5 15.5t68.5 4.5q37 0 67.5 -7t55.5 -18z" />
<glyph unicode="&#x2c6;" horiz-adv-x="682" d="M543 1112l-203 223l-203 -223h-119l230 352h184l230 -352h-119z" />
<glyph unicode="&#x2c7;" horiz-adv-x="680" d="M662 1464l-230 -352h-184l-230 352h119l203 -223l203 223h119z" />
<glyph unicode="&#x2d8;" horiz-adv-x="670" d="M668 1454q0 -70 -30.5 -131.5t-82.5 -106.5q-47 -41 -106 -64.5t-125 -23.5t-120 20.5t-96 57.5q-50 45 -77 108.5t-27 139.5h141q0 -38 13.5 -68t36.5 -53q25 -23 58 -36t71 -13q40 0 76 12t63 34q28 23 44.5 54t16.5 70h144z" />
<glyph unicode="&#x2d9;" horiz-adv-x="252" d="M125 1419q27 0 50.5 -11.5t40.5 -31.5q13 -15 20.5 -34t7.5 -39q0 -49 -35 -84q-17 -17 -38 -26t-46 -9q-23 0 -42.5 8.5t-35.5 22.5q-18 17 -28.5 39.5t-10.5 48.5q0 51 35 84q16 15 37 23.5t45 8.5z" />
<glyph unicode="&#x2da;" horiz-adv-x="446" d="M225 1511q42 0 79.5 -16t66.5 -43q30 -29 47.5 -67t17.5 -82q0 -43 -15.5 -80.5t-43.5 -66.5q-29 -29 -68 -46.5t-84 -17.5q-42 0 -79.5 15.5t-66.5 42.5q-30 29 -47.5 68.5t-17.5 84.5q0 47 20 87.5t54 69.5q28 24 63 37.5t74 13.5zM225 1202q20 0 37 7t31 19 q15 14 24 33t9 42q0 41 -28 69q-29 29 -73 29q-22 0 -41 -8.5t-33 -22.5q-13 -13 -20.5 -30t-7.5 -37q0 -41 29 -70q14 -14 33 -22.5t40 -8.5z" />
<glyph unicode="&#x2db;" horiz-adv-x="465" d="M393 -233l66 -142q-50 -17 -94 -26q-43 -9 -84 -9q-63 0 -116.5 21.5t-91.5 61.5q-29 32 -46 73t-17 92q0 80 44 148q50 77 161 139l57 -162q-28 -15 -47 -29t-30 -29t-16 -32.5t-5 -38.5q0 -25 11.5 -43.5t28.5 -31.5q16 -11 35 -17t36 -6q56 0 108 31z" />
<glyph unicode="&#x2dc;" horiz-adv-x="639" d="M637 1407q-29 -116 -84 -167q-45 -42 -109 -42q-40 0 -73.5 12t-62.5 27t-55.5 27t-51.5 12q-71 0 -109 -78h-90q5 39 22.5 79.5t45.5 72.5q23 26 51.5 41.5t62.5 15.5q51 0 86 -12t62.5 -27t52.5 -27t55 -12q42 0 68.5 20t40.5 58h88z" />
<glyph unicode="&#x2dd;" horiz-adv-x="678" d="M2 1112l197 352h176l-254 -352h-119zM303 1112l197 352h176l-254 -352h-119z" />
<glyph unicode="&#x2013;" horiz-adv-x="752" d="M53 399v160h645v-160h-645z" />
<glyph unicode="&#x2014;" horiz-adv-x="1503" d="M53 399v160h1397v-160h-1397z" />
<glyph unicode="&#x2018;" horiz-adv-x="752" d="M518 1440q-37 -34 -62.5 -62.5t-40.5 -54t-21.5 -50t-6.5 -50.5t8 -51t25 -50q47 -23 69 -57q15 -24 15 -53q0 -52 -38 -84q-33 -27 -87 -27q-38 0 -64 13.5t-43 35.5q-19 24 -27.5 54.5t-8.5 58.5q0 112 32 195q28 71 80 127.5t133 105.5z" />
<glyph unicode="&#x2019;" horiz-adv-x="752" d="M236 952q38 34 63 62.5t40 54t21.5 50t6.5 50.5q0 52 -33 101q-22 11 -37.5 23t-26.5 26q-20 26 -20 61q0 50 32 79q35 32 93 32q33 0 57.5 -11.5t41.5 -29.5q23 -25 33.5 -58t10.5 -63q0 -102 -28 -182q-27 -75 -80 -135t-138 -111z" />
<glyph unicode="&#x201a;" horiz-adv-x="752" d="M233 -276q38 34 63.5 62t40.5 54t21.5 50.5t6.5 50.5q0 50 -33 100q-22 11 -37 23t-26 26q-21 27 -21 62q0 55 41 85q33 25 84 25q37 0 63.5 -14t43.5 -36q19 -24 27.5 -54t8.5 -58q0 -104 -30 -186q-27 -74 -80 -132.5t-136 -109.5z" />
<glyph unicode="&#x201c;" horiz-adv-x="1073" d="M494 1440q-38 -34 -63.5 -62.5t-40.5 -54t-21.5 -50t-6.5 -50.5q0 -51 33 -101q44 -21 64 -48.5t20 -61.5q0 -50 -32 -79q-17 -15 -40.5 -23.5t-52.5 -8.5q-30 0 -53 9.5t-40 25.5q-26 25 -38 60t-12 67q0 117 35 202q28 69 80 123.5t131 102.5zM862 1440 q-37 -34 -62.5 -62.5t-40.5 -54t-21.5 -50t-6.5 -50.5t8 -51t25 -50q84 -41 84 -110q0 -60 -47 -90q-16 -10 -35.5 -15.5t-42.5 -5.5q-34 0 -59 11.5t-42 30.5q-23 25 -32.5 57.5t-9.5 62.5q0 53 7 99t22 87q27 74 79.5 132.5t136.5 109.5z" />
<glyph unicode="&#x201d;" horiz-adv-x="1073" d="M580 952q38 34 63 62.5t40 54t21.5 50t6.5 50.5q0 52 -33 101q-84 41 -84 110q0 50 33 80q34 31 92 31q33 0 57 -11t41 -29q23 -25 34 -58t11 -64q0 -111 -32 -194q-28 -71 -80.5 -127.5t-133.5 -106.5zM211 952q38 34 63 62.5t40 54t21.5 50t6.5 50.5t-8 51t-25 50 q-84 41 -84 110q0 25 9 45.5t26 35.5q35 30 90 30q38 0 64.5 -14t43.5 -36q19 -24 27.5 -54t8.5 -58q0 -111 -32 -194q-28 -71 -80.5 -127.5t-133.5 -106.5z" />
<glyph unicode="&#x201e;" horiz-adv-x="1073" d="M600 -276q38 34 63 62t40 54t21.5 50.5t6.5 50.5t-8 50.5t-25 49.5q-44 23 -65 51q-19 26 -19 60q0 50 34 79q34 31 91 31q34 0 59 -11.5t42 -30.5q23 -25 33 -57.5t10 -62.5q0 -107 -31 -190q-27 -72 -80 -129.5t-135 -108.5zM231 -276q38 34 63 62t40 54t21.5 50.5 t6.5 50.5q0 52 -32 100q-44 23 -64 50q-20 28 -20 61q0 55 41 85q33 25 84 25q29 0 52 -9t40 -24q27 -25 39 -61t12 -68q0 -91 -22 -163q-25 -82 -79.5 -146t-144.5 -119z" />
<glyph unicode="&#x2020;" horiz-adv-x="1004" d="M428 1020h-369v133h369v311h150v-311h368v-133h-368v-1118h-150v1118z" />
<glyph unicode="&#x2021;" horiz-adv-x="1004" d="M948 451v-134h-368v-415h-150v415h-369v134h369v569h-369v133h369v311h150v-311h368v-133h-368v-569h368z" />
<glyph unicode="&#x2022;" horiz-adv-x="862" d="M432 795q46 0 86 -17.5t71 -47.5q32 -31 50 -71.5t18 -87.5q0 -42 -14 -79t-39 -66q-31 -38 -75.5 -60t-96.5 -22q-51 0 -94.5 20t-74.5 55q-27 30 -42.5 68.5t-15.5 83.5t16 84.5t45 69.5q31 32 73.5 51t92.5 19z" />
<glyph unicode="&#x2026;" horiz-adv-x="1503" d="M1391 121q0 -31 -12 -57t-32 -46q-19 -18 -44 -28t-54 -10q-61 0 -100 41q-19 20 -30 45.5t-11 54.5q0 59 39 98q19 19 45 30t57 11q32 0 58 -11.5t46 -31.5q18 -19 28 -43t10 -53zM397 121q0 -30 -11 -55.5t-31 -45.5q-19 -19 -44.5 -29.5t-54.5 -10.5t-54 10.5 t-44 28.5q-20 20 -31.5 46t-11.5 56q0 32 12 58t32 45q39 36 97 36q30 0 55.5 -10.5t44.5 -28.5q41 -39 41 -100zM897 121q0 -29 -10.5 -54.5t-29.5 -45.5q-39 -41 -101 -41q-30 0 -56 11t-46 31q-19 19 -29.5 44.5t-10.5 54.5q0 31 11 56t31 44q19 18 45 28.5t55 10.5 q30 0 55.5 -10.5t44.5 -28.5q41 -39 41 -100z" />
<glyph unicode="&#x2030;" horiz-adv-x="2515" d="M37 1085q0 64 21.5 121.5t59.5 104.5q50 61 122.5 97t160.5 36h994l-940 -1444h-160l889 1339h-525q18 -17 37 -42t34 -57t24.5 -70.5t9.5 -84.5q0 -73 -22 -135.5t-64 -111.5q-49 -57 -119.5 -90t-157.5 -33q-94 0 -169.5 39t-123.5 105q-34 47 -52.5 104t-18.5 122z M176 1083q0 -92 46 -156q29 -42 74.5 -65.5t104.5 -23.5q49 0 88.5 15.5t68.5 44.5q34 33 51.5 80.5t17.5 104.5q0 97 -53 161q-29 36 -73 56.5t-100 20.5q-60 0 -106 -24t-75 -66q-21 -30 -32.5 -68t-11.5 -80zM1751 350q0 63 21 120.5t58 103.5q50 62 124 98.5t162 36.5 q77 0 143 -28t115 -77t76.5 -114t27.5 -140q0 -70 -20.5 -130.5t-58.5 -108.5q-48 -61 -120 -96t-163 -35q-90 0 -162.5 35t-121.5 96q-38 48 -59.5 109t-21.5 130zM1890 348q0 -49 13.5 -91.5t39.5 -74.5q29 -38 73 -59t100 -21q60 0 106.5 24.5t75.5 67.5q43 65 43 154 q0 50 -15.5 93t-44.5 75t-70.5 51t-94.5 19q-59 0 -104.5 -23.5t-74.5 -63.5q-23 -31 -35 -69t-12 -82zM911 350q0 71 26 134t72 111q50 53 118 83.5t149 30.5q69 0 128 -22t106 -61q60 -50 94 -121t34 -155q0 -76 -24 -141.5t-69 -114.5q-48 -54 -116.5 -84t-152.5 -30 q-90 0 -163 35.5t-122 96.5q-38 48 -59 108.5t-21 129.5zM1051 348q0 -51 15 -95t42 -76q29 -35 71.5 -55t96.5 -20q51 0 92 17.5t70 49.5q31 33 47 79t16 100q0 58 -21 107.5t-60 81.5q-28 23 -64 36t-80 13q-51 0 -92 -18t-70 -49q-30 -32 -46.5 -76t-16.5 -95z" />
<glyph unicode="&#x2039;" horiz-adv-x="752" d="M205 391v111l340 274v-153l-226 -183l226 -164v-151z" />
<glyph unicode="&#x203a;" horiz-adv-x="752" d="M205 125v151l225 164l-225 183v153l340 -274v-111z" />
<glyph unicode="&#x2044;" horiz-adv-x="680" d="M-6 0h-166l874 1464h166z" />
<glyph unicode="&#x20ac;" horiz-adv-x="1073" d="M803 924q-13 -35 -26 -61t-25 -58h-422q-2 -23 -3 -46t-1 -38q0 -29 1 -48t1 -28h348q-13 -34 -21.5 -59.5t-19.5 -59.5h-293q21 -120 77 -209q28 -45 63 -79.5t77 -57.5q77 -43 168 -43q37 0 75 5t76 18q42 14 82 39.5t78 66.5v-184q-63 -48 -148 -74q-93 -28 -212 -28 q-80 0 -147.5 25.5t-124.5 70.5q-54 42 -97 97.5t-75 118.5q-29 57 -47.5 116t-28.5 118h-117v119h100q-2 19 -2 36.5v37.5t1 40.5t3 45.5h-102v119h115q8 64 25 122.5t43 111.5q35 70 82 127.5t107 99.5q67 48 146 74t168 26q60 0 107.5 -7t87.5 -18q42 -12 75.5 -27 t61.5 -32q-20 -38 -41 -73t-41 -73q-25 19 -53.5 32t-60.5 22q-66 18 -146 18q-52 0 -96.5 -13t-82.5 -36q-79 -49 -128 -137q-27 -48 -44.5 -102.5t-25.5 -114.5h463z" />
<glyph unicode="&#x2122;" horiz-adv-x="877" d="M236 1403v-447h-70v447h-146v61h367v-61h-151zM788 958l-55 345l-102 -349h-41l-107 353l-53 -349h-65l75 506h54l114 -393l117 393h53l78 -506h-68z" />
<glyph unicode="&#x2212;" d="M1012 700v-135h-867v135h867z" />
<glyph unicode="&#x2260;" d="M811 864h201v-135h-291l-129 -192h420v-136h-510l-131 -196h-154l131 196h-203v136h293l129 192h-422v135h512l131 197h154z" />
<glyph unicode="&#x2264;" d="M1012 135v-135h-867v135h867zM1012 211l-867 364v121l867 359v-156l-682 -264l682 -264v-160z" />
<glyph unicode="&#x2265;" d="M1012 135v-135h-867v135h867zM145 371l682 264l-682 264v156l867 -359v-121l-867 -364v160z" />
<glyph unicode="&#x25fc;" horiz-adv-x="900" d="M0 900h900v-900h-900v900z" />
<glyph unicode="&#xfb01;" horiz-adv-x="973" d="M784 1419q20 0 38 -8t32 -22q15 -14 24 -33t9 -39t-7.5 -38t-21.5 -32q-14 -15 -33.5 -24t-40.5 -9q-39 0 -68 24q-17 14 -27.5 34.5t-10.5 44.5q0 20 7.5 38t21.5 32q30 32 77 32zM705 0v774h-80v127h237v-901h-157zM569 1333q-20 6 -40 9.5t-42 3.5q-71 0 -110 -41 q-47 -49 -47 -142v-262h162v-127h-164v-774h-160v774h-133v127h133v297q0 50 13.5 92t38.5 77q40 53 99 83q34 17 72.5 26t81.5 9q60 0 135 -23z" />
<glyph unicode="&#xfb02;" horiz-adv-x="1024" d="M702 1464h160v-1253q0 -59 28.5 -89t76.5 -30v-2q-20 -46 -49 -73q-20 -20 -43 -28.5t-46 -8.5q-49 0 -80 31q-47 47 -47 153v1300zM569 1333q-20 6 -40 9.5t-42 3.5q-71 0 -111 -42q-46 -49 -46 -141v-262h162v-127h-164v-774h-160v774h-133v127h133v297q0 53 15.5 98 t43.5 80q44 54 112 83q61 26 134 26q60 0 135 -23z" />
</font>
</defs>
</svg>
